Subcategories

Argos - Cruel Symmetry (2012)

Posted By: gribovar
Argos - Cruel Symmetry (2012)

Argos - Cruel Symmetry (2012)
EAC Rip | FLAC (image+.cue+log) - 345 MB | MP3 CBR 320 kbps (LAME 3.93) - 128 MB | Covers - 34 MB
Genre: Progressive Rock | RAR 3% Rec. | Label: Progressive Promotion Records (PPRCD010)

The German band Argos started out as a two person venture back in 2005. Since then they finalized their line-up as a trio first and a quartet later, and released two full length albums through Musea Records, the most recent of these in 2010. Come 2012 and this foursome have now been added to the roster at the German label Progressive Promotion Records, which released their third album "Cruel Symmetry". If you have an affection for British progressive rock of the 70's in general or find bands with a distinct sound and atmosphere inspired from artists of the symphonic and Canterbury tradition from that time and place to be of general interest, Argos is a band that merits inspection. Especially if you enjoy a band that sticks to a light toned and fairly whimsical overall sound and expression.
Tracklist:
01. Cruel Symmetry
02. Paper Ship Dreams
03. Chance Encounters
04. Possessions
05. The Story Of Flying Robert
06. Caught Within The Light
07. Open Book

Total time: 54:39

Exact Audio Copy V1.0 beta 3 from 29. August 2011

EAC extraction logfile from 27. February 2013, 21:43

Argos / Cruel Symmetry

Used drive : ASUS DRW-24B1LT Adapter: 4 ID: 0

Read mode : Secure
Utilize accurate stream : Yes
Defeat audio cache : Yes
Make use of C2 pointers : No

Read offset correction : 6
Overread into Lead-In and Lead-Out : No
Fill up missing offset samples with silence : Yes
Delete leading and trailing silent blocks : No
Null samples used in CRC calculations : Yes
Used interface : Native Win32 interface for Win NT & 2000

Used output format : User Defined Encoder
Selected bitrate : 1024 kBit/s
Quality : High
Add ID3 tag : Yes
Command line compressor : C:\Program Files (x86)\FLAC\flac.exe
Additional command line options : -6 -V -T "ARTIST=%artist%" -T "TITLE=%title%" -T "ALBUM=%albumtitle%" -T "DATE=%year%" -T "TRACKNUMBER=%tracknr%" -T "GENRE=%genre%" -T "COMMENT=%comment%" %source% -o %dest%


TOC of the extracted CD

Track | Start | Length | Start sector | End sector
––––––––––––––––––––––––––––-
1 | 0:00.00 | 20:43.23 | 0 | 93247
2 | 20:43.23 | 4:30.01 | 93248 | 113498
3 | 25:13.24 | 4:21.38 | 113499 | 133111
4 | 29:34.62 | 6:05.13 | 133112 | 160499
5 | 35:40.00 | 4:29.03 | 160500 | 180677
6 | 40:09.03 | 6:46.68 | 180678 | 211195
7 | 46:55.71 | 7:43.04 | 211196 | 245924


Range status and errors

Selected range

Filename Y:\EAC\wurensh\Argos\Argos - Cruel Symmetry.wav

Peak level 97.7 %
Extraction speed 8.7 X
Range quality 100.0 %
Test CRC C216E43F
Copy CRC C216E43F
Copy OK

No errors occurred


AccurateRip summary

Track 1 accurately ripped (confidence 1) [539D6A40] (AR v2)
Track 2 accurately ripped (confidence 1) [848C58D5] (AR v2)
Track 3 accurately ripped (confidence 1) [917A44AC] (AR v2)
Track 4 accurately ripped (confidence 1) [B8572827] (AR v2)
Track 5 accurately ripped (confidence 1) [1E403FF2] (AR v2)
Track 6 accurately ripped (confidence 1) [C6D4A520] (AR v2)
Track 7 accurately ripped (confidence 1) [7459FFA5] (AR v2)

All tracks accurately ripped

End of status report

Thanks to wurensh
LOSSLESS:

Filepost.com

Depositfiles.com
_______________

MP3 320 kbps:

Filepost.com

Depositfiles.com
_______________

Covers:

Filepost.com

Depositfiles.com