Subcategories

Ari Roland - Sketches From A Bassist's Album (2005) {Smalls Rec}

Posted By: tiburon
Ari Roland - Sketches From A Bassist's Album (2005) {Smalls Rec}

Ari Roland - Sketches From A Bassist's Album (2005) {Smalls Rec}
EAC 1.3 | FLAC tracks level 8 | Cue+Log+M3U | Full Scans 300dpi | 329MB + 5% Recovery
MP3 CBR 320 Kbps | 158MB + 5% Recovery
Genre: Jazz, Post-Bop

Ari Roland is one of many talented musicians overlooked by jazz labels until the mid-'90s debut of Smalls. The bassist's brand of bop is a demanding variation on hard bop with complex twists within his themes that keeps the pressure on his top-notch quartet, which includes tenor saxophonist Chris Byars, pianist Sacha Perry, and drummer Phil Stewart. It's impossible not to dig the groove of Roland's forceful "The Lion of Yerevan," in which he showcases his dark arco basslines as well as his driving rhythm. "Swamp Thing Goes to the Indy 500" is also a wild ride as the band negotiates its many sudden turns. The standard "Thou Swell" is a bit more mainstream, though Perry's choice of chords is decidedly different, while Byars' solo evokes the spirit of Don Byas. Elmo Hope's music is all but ignored in the 21st century, but the sensational arrangement of "Mo's On" (recorded for Blue Note by the composer and issued as "Mo Is On") speeds up the tempo of the difficult overlooked treasure, featuring the leader's superb bow work, a playful call-and-response between Byars and Perry, with a fine break by Stewart. Ari Roland and his musicians are clearly deserving of wider recognition after this outstanding session.
Track List
1. The Lion of Yerevan - 5:52
2. Most's Paradise - 6:00
3. Replaceable Me - 6:14
4. Swamp Thing Goes to the Indy 500 - 3:16
5. Mensch Blues - 8:06
6. Ah, Transcarpathicus - 6:19
7. Thou Swell (Lorenz Hart / Richard Rodgers) - 6:07
8. Byars-A-Maki - 5:29
9. Mo's On - 4:11
10. I'll Walk Alone (Sammy Cahn / Jule Styne) - 6:08

musicians
Ari Roland - Bass
Chris Byars - Sax (Tenor), Tenor (Vocal)
Sacha Perry - Piano
Phil Stewart - Drums

Produced by Luke Kaven


Exact Audio Copy V1.3 from 2. September 2016

EAC extraction logfile from 18. December 2017, 20:06

Ari Roland / Sketches From A Bassist's Album

Used drive : HL-DT-STDVDRAM GH24NSB0 Adapter: 1 ID: 0

Read mode : Secure
Utilize accurate stream : Yes
Defeat audio cache : Yes
Make use of C2 pointers : No

Read offset correction : 6
Overread into Lead-In and Lead-Out : No
Fill up missing offset samples with silence : Yes
Delete leading and trailing silent blocks : No
Null samples used in CRC calculations : Yes
Used interface : Native Win32 interface for Win NT & 2000
Gap handling : Appended to previous track

Used output format : User Defined Encoder
Selected bitrate : 1024 kBit/s
Quality : High
Add ID3 tag : No
Command line compressor : C:\Program Files (x86)\Exact Audio Copy\FLAC\FLAC.EXE
Additional command line options : -V -8 -T "Genre=%genre%" -T "Artist=%artist%" -T "Title=%title%" -T "Album=%albumtitle%" -T "Date=%year%" -T "Tracknumber=%tracknr%" -T "Comment=%comment%" %source%


TOC of the extracted CD

Track | Start | Length | Start sector | End sector
––––––––––––––––––––––––––––-
1 | 0:00.00 | 5:52.30 | 0 | 26429
2 | 5:52.30 | 6:00.08 | 26430 | 53437
3 | 11:52.38 | 6:14.38 | 53438 | 81525
4 | 18:07.01 | 3:16.11 | 81526 | 96236
5 | 21:23.12 | 8:06.64 | 96237 | 132750
6 | 29:30.01 | 6:19.28 | 132751 | 161203
7 | 35:49.29 | 6:07.16 | 161204 | 188744
8 | 41:56.45 | 5:29.06 | 188745 | 213425
9 | 47:25.51 | 4:11.26 | 213426 | 232276
10 | 51:37.02 | 6:08.42 | 232277 | 259918


Track 1

Filename D:\Music\MG rips\Ari Roland - Sketches From A Bassist's Album - 2005 (Smalls Rec) [FLAC]\01 - The Lion Of Yerevan.wav

Pre-gap length 0:00:02.00

Peak level 100.0 %
Extraction speed 1.1 X
Track quality 100.0 %
Test CRC C00E303D
Copy CRC C00E303D
Accurately ripped (confidence 1) [D5197259] (AR v2)
Copy OK

Track 2

Filename D:\Music\MG rips\Ari Roland - Sketches From A Bassist's Album - 2005 (Smalls Rec) [FLAC]\02 - Most's Paradise.wav

Peak level 100.0 %
Extraction speed 1.2 X
Track quality 100.0 %
Test CRC 49B66197
Copy CRC 49B66197
Accurately ripped (confidence 1) [0DE5194E] (AR v2)
Copy OK

Track 3

Filename D:\Music\MG rips\Ari Roland - Sketches From A Bassist's Album - 2005 (Smalls Rec) [FLAC]\03 - Replaceable Me.wav

Peak level 90.6 %
Extraction speed 1.3 X
Track quality 99.9 %
Test CRC 062F6174
Copy CRC 062F6174
Accurately ripped (confidence 1) [E04F11EB] (AR v2)
Copy OK

Track 4

Filename D:\Music\MG rips\Ari Roland - Sketches From A Bassist's Album - 2005 (Smalls Rec) [FLAC]\04 - Swamp Thing Goes To The Indy 500.wav

Peak level 100.0 %
Extraction speed 1.4 X
Track quality 100.0 %
Test CRC E71A6486
Copy CRC E71A6486
Accurately ripped (confidence 1) [AC04F692] (AR v2)
Copy OK

Track 5

Filename D:\Music\MG rips\Ari Roland - Sketches From A Bassist's Album - 2005 (Smalls Rec) [FLAC]\05 - Mensch Blues.wav

Peak level 100.0 %
Extraction speed 1.7 X
Track quality 100.0 %
Test CRC E332B2FC
Copy CRC E332B2FC
Accurately ripped (confidence 1) [66B11263] (AR v2)
Copy OK

Track 6

Filename D:\Music\MG rips\Ari Roland - Sketches From A Bassist's Album - 2005 (Smalls Rec) [FLAC]\06 - ''Ah, Transcarpathicus''.wav

Peak level 100.0 %
Extraction speed 1.8 X
Track quality 100.0 %
Test CRC 267A1D03
Copy CRC 267A1D03
Accurately ripped (confidence 1) [F62400A8] (AR v2)
Copy OK

Track 7

Filename D:\Music\MG rips\Ari Roland - Sketches From A Bassist's Album - 2005 (Smalls Rec) [FLAC]\07 - Thou Swell.wav

Peak level 100.0 %
Extraction speed 1.9 X
Track quality 100.0 %
Test CRC 8ABAB2EE
Copy CRC 8ABAB2EE
Accurately ripped (confidence 1) [4B6F146E] (AR v2)
Copy OK

Track 8

Filename D:\Music\MG rips\Ari Roland - Sketches From A Bassist's Album - 2005 (Smalls Rec) [FLAC]\08 - Byars-a-Maki.wav

Peak level 98.6 %
Extraction speed 2.0 X
Track quality 100.0 %
Test CRC 7A9E6AED
Copy CRC 7A9E6AED
Accurately ripped (confidence 1) [FB0B100B] (AR v2)
Copy OK

Track 9

Filename D:\Music\MG rips\Ari Roland - Sketches From A Bassist's Album - 2005 (Smalls Rec) [FLAC]\09 - Mo's On.wav

Peak level 100.0 %
Extraction speed 1.8 X
Track quality 99.9 %
Test CRC 23EB9014
Copy CRC 23EB9014
Accurately ripped (confidence 1) [E175BC23] (AR v2)
Copy OK

Track 10

Filename D:\Music\MG rips\Ari Roland - Sketches From A Bassist's Album - 2005 (Smalls Rec) [FLAC]\10 - I'll Walk Alone.wav

Peak level 90.1 %
Extraction speed 2.2 X
Track quality 100.0 %
Test CRC 66F6A09E
Copy CRC 66F6A09E
Accurately ripped (confidence 1) [D6EA3807] (AR v2)
Copy OK


All tracks accurately ripped

No errors occurred

End of status report

==== Log checksum CDDDB3EE5E3F2FE6A6CEC0F4F1E5FA1B0B74BC15B3C7B7E69A06870FF70D8964 ====

Ari Roland - Sketches From A Bassist's Album (2005) {Smalls Rec}
Ari Roland - Sketches From A Bassist's Album (2005) {Smalls Rec}


Thanks to the original ripper