Subcategories

Ariel - A Strange Fantastic Dream (1974) [Reissue 2001] (Repost)

Posted By: gribovar
Ariel - A Strange Fantastic Dream (1974) [Reissue 2001] (Repost)

Ariel - A Strange Fantastic Dream (1974) [Reissue 2001]
EAC Rip | WavPack (image+.cue+log) - 301 MB | MP3 CBR 320 kbps (LAME 3.93) - 113 MB | Covers - 32 MB
Genre: Progressive Rock | RAR 3% Rec. | Label: Rare Vision (RVSN-002)

The original lineup of Ariel was a genuine 'supergroup', combining key members from two of Australia's leading progressive bands of the period: Rudd, Putt and Mills hailed from Melbourne's legendary Spectrum, Gaze and Macara from Spectrum's esteemed Sydney peers Tamam Shud. Lead guitarist Tim Gaze, regarded as one of the hottest players on the scene, had also joined Shud at just 16 and by the time he joined Ariel he had also been a member of Kahvas Jute, and played on their only album, the brilliant Wide Open. "A Strange Fantastic Dream in December" was their excellent first LP. Lovingly re-mastered classic Ariel album on Spectrum’s own Rare Vision label with bonus track "Red Hot Momma".

Tracklist:
01. Jamaican Farewell
02. No Encores
03. Confessions of a Psychopathic
04. Cowpoke
05. And I'm Blue
06. Garden of the Frenzied Cortinas
07. Miracle Man
08. Chicken Shit
09. Worm Turning Blues
10. Wheezer Grunter Module Threadaboy
11. Harry V. Dirchy (God The Man)
12. Hard Way To Go
13. And If It Wasn't For You
14. Red Hot Momma (Bonus track)

Total time: 48:09

Exact Audio Copy V1.0 beta 1 from 15. November 2010

EAC extraction logfile from 12. May 2011, 16:53

Ariel / A Strange Fantastic Dream

Used drive : ATAPI iHAS124 Y Adapter: 2 ID: 0

Read mode : Secure
Utilize accurate stream : Yes
Defeat audio cache : Yes
Make use of C2 pointers : No

Read offset correction : 48
Overread into Lead-In and Lead-Out : No
Fill up missing offset samples with silence : Yes
Delete leading and trailing silent blocks : No
Null samples used in CRC calculations : Yes
Used interface : Installed external ASPI interface

Used output format : Internal WAV Routines
Sample format : 44.100 Hz; 16 Bit; Stereo


TOC of the extracted CD

Track | Start | Length | Start sector | End sector
––––––––––––––––––––––––––––-
1 | 0:00.00 | 2:50.62 | 0 | 12811
2 | 2:50.62 | 3:47.37 | 12812 | 29873
3 | 6:38.24 | 4:43.05 | 29874 | 51103
4 | 11:21.29 | 2:51.73 | 51104 | 64001
5 | 14:13.27 | 7:46.19 | 64002 | 98970
6 | 21:59.46 | 5:29.28 | 98971 | 123673
7 | 27:28.74 | 4:23.12 | 123674 | 143410
8 | 31:52.11 | 2:56.41 | 143411 | 156651
9 | 34:48.52 | 4:20.40 | 156652 | 176191
10 | 39:09.17 | 3:48.69 | 176192 | 193360
11 | 42:58.11 | 2:32.28 | 193361 | 204788
12 | 45:30.39 | 2:38.45 | 204789 | 216683


Range status and errors

Selected range

Filename C:\New Folder (8)\Ariel - A Strange Fantastic Dream.wav

Peak level 100.0 %
Extraction speed 0.2 X
Range quality 100.0 %
Test CRC DAD3DA85
Copy CRC DAD3DA85
Copy OK

No errors occurred


AccurateRip summary

Track 1 not present in database
Track 2 not present in database
Track 3 not present in database
Track 4 not present in database
Track 5 not present in database
Track 6 not present in database
Track 7 not present in database
Track 8 not present in database
Track 9 not present in database
Track 10 not present in database
Track 11 not present in database
Track 12 not present in database

None of the tracks are present in the AccurateRip database

End of status report

==== Log checksum A009A74141CC4B3174CB78BA28B5EE1178D4F465CEF0F32381D03AD0DBCE4FC3 ====

[CUETools log; Date: 18.12.2017 13:14:31; Version: 2.1.4]
[CTDB TOCID: K4dnxs9InlG.tjOJalN5t1rhjlg-] found.
Track | CTDB Status
1 | (1/1) Accurately ripped
2 | (1/1) Accurately ripped
3 | (1/1) Accurately ripped
4 | (1/1) Accurately ripped
5 | (1/1) Accurately ripped
6 | (1/1) Accurately ripped
7 | (1/1) Accurately ripped
8 | (1/1) Accurately ripped
9 | (1/1) Accurately ripped
10 | (1/1) Accurately ripped
11 | (1/1) Accurately ripped
12 | (1/1) Accurately ripped
[AccurateRip ID: 00167426-00d2dee8-880b490c] found.
Track [ CRC | V2 ] Status
01 [094772b2|70fc5b6e] (0+2/2) Accurately ripped
02 [d1d90bd8|353f3ace] (0+2/2) Accurately ripped
03 [0298e183|ba8b3078] (0+2/2) Accurately ripped
04 [659a080a|23cd2731] (0+2/2) Accurately ripped
05 [a7aad39b|b73b9fab] (0+2/2) Accurately ripped
06 [0623de29|82ae445d] (0+2/2) Accurately ripped
07 [17f8deed|aca8d912] (0+2/2) Accurately ripped
08 [d1b26739|93dd9bcb] (0+2/2) Accurately ripped
09 [1e49d0db|d5e6028b] (0+2/2) Accurately ripped
10 [27afd10b|52945242] (0+2/2) Accurately ripped
11 [e6214220|7cacfd78] (0+2/2) Accurately ripped
12 [09f81243|fd9674ef] (0+2/2) Accurately ripped

Track Peak [ CRC32 ] [W/O NULL] [ LOG ]
– 100,0 [DAD3DA85] [F5131724] CRC32
01 99,8 [EAAFCA29] [009959B1]
02 99,8 [5F43357A] [CEA95356]
03 99,8 [9BB24198] [6D763559]
04 88,9 [428A36EF] [FD11D242]
05 99,8 [BBED8151] [91A7CB0C]
06 99,3 [E0503823] [DE2443D1]
07 99,8 [17D3D1B3] [5A97522F]
08 100,0 [20058032] [DFE0A696]
09 99,8 [61D78BE7] [BA3D8B85]
10 99,8 [306BAE99] [9F58ADF0]
11 99,5 [67A0C5C6] [F2A3DD96]
12 99,8 [D23775C9] [AB1B4F13]

Thanks to transgressions