Subcategories

Ariel - Rock & Roll Scars (1975) [Reissue 2002] (Repost)

Posted By: gribovar
Ariel - Rock & Roll Scars (1975) [Reissue 2002] (Repost)

Ariel - Rock & Roll Scars (1975) [Reissue 2002]
EAC Rip | WavPack (image+.cue+log) - 282 MB | MP3 CBR 320 kbps (LAME 3.93) - 104 MB | Covers - 22 MB
Genre: Progressive Rock | RAR 3% Rec. | Label: Rare Vision (RVSN-003)

Ariel was an Australian progressive rock band based around the duo Mike Rudd and Bill Putt, who formed the band in 1973 after the breakup of their previous group Spectrum. As he had done many times before and would continue to do throughout his 40-year career, Mike Rudd rose to the occasion delivering the vibrant 'Rock & Roll Scars', made up of re-recorded versions of Spectrum and early Ariel material with three new songs he'd somehow had time to write.

Tracklist:
01. Keep on Dancing (With Me)
02. (I'll Be Going) I'll Be Gone
03. Rock & Roll Scars
04. Real Meanie
05. Men in Grey Raincoats
06. Launching Place Part II
07. We are Indelible
08. What the World Needs (is a New Pair of Socks)
09. Red Hot Momma
10. Some Good Advice
11. I am the Laughing Man
12. Yeah Tonight
13. I am the Laughing Man (alt. version)

Total time: 44:11

Exact Audio Copy V1.0 beta 2 from 29. April 2011

EAC extraction logfile from 27. May 2011, 17:09

Ariel / Rock & Roll Scars

Used drive : ATAPI iHAS124 Y Adapter: 2 ID: 0

Read mode : Secure
Utilize accurate stream : Yes
Defeat audio cache : Yes
Make use of C2 pointers : No

Read offset correction : 48
Overread into Lead-In and Lead-Out : No
Fill up missing offset samples with silence : Yes
Delete leading and trailing silent blocks : No
Null samples used in CRC calculations : Yes
Used interface : Installed external ASPI interface

Used output format : Internal WAV Routines
Sample format : 44.100 Hz; 16 Bit; Stereo


TOC of the extracted CD

Track | Start | Length | Start sector | End sector
––––––––––––––––––––––––––––-
1 | 0:00.00 | 2:54.31 | 0 | 13080
2 | 2:54.31 | 4:19.47 | 13081 | 32552
3 | 7:14.03 | 3:44.47 | 32553 | 49399
4 | 10:58.50 | 4:08.67 | 49400 | 68066
5 | 15:07.42 | 3:22.61 | 68067 | 83277
6 | 18:30.28 | 2:24.28 | 83278 | 94105
7 | 20:54.56 | 2:42.36 | 94106 | 106291
8 | 23:37.17 | 3:16.22 | 106292 | 121013
9 | 26:53.39 | 2:36.57 | 121014 | 132770
10 | 29:30.21 | 5:45.00 | 132771 | 158645
11 | 35:15.21 | 2:58.60 | 158646 | 172055
12 | 38:14.06 | 3:09.37 | 172056 | 186267
13 | 41:23.43 | 2:47.02 | 186268 | 198794


Range status and errors

Selected range

Filename G:\New Folder (4)\Ariel - Rock & Roll Scars.wav

Peak level 99.8 %
Extraction speed 3.6 X
Range quality 100.0 %
Test CRC D16E30FF
Copy CRC D16E30FF
Copy OK

No errors occurred


AccurateRip summary

Track 1 accurately ripped (confidence 1) [F6903E2E] (AR v2)
Track 2 accurately ripped (confidence 1) [E6E7C605] (AR v2)
Track 3 accurately ripped (confidence 1) [EF4EB9DA] (AR v2)
Track 4 accurately ripped (confidence 1) [3BB554C1] (AR v2)
Track 5 accurately ripped (confidence 1) [CA5BFD66] (AR v2)
Track 6 accurately ripped (confidence 1) [A6D13B03] (AR v2)
Track 7 accurately ripped (confidence 1) [E92CEEAC] (AR v2)
Track 8 accurately ripped (confidence 1) [872B9FD3] (AR v2)
Track 9 accurately ripped (confidence 1) [978CD665] (AR v2)
Track 10 accurately ripped (confidence 1) [46D4D12E] (AR v2)
Track 11 accurately ripped (confidence 1) [1145B3A9] (AR v2)
Track 12 accurately ripped (confidence 1) [885F3559] (AR v2)
Track 13 accurately ripped (confidence 1) [867EC26D] (AR v2)

All tracks accurately ripped

End of status report

==== Log checksum B33CCDEA4FF21545D4A008799C1622CD79311C9C1CBEB4BB41E8A2DE6F944583 ====

[CUETools log; Date: 18.12.2017 13:22:20; Version: 2.1.4]
[CTDB TOCID: haeSXHqf9RSoF25IQqnoWD99RD4-] found.
Track | CTDB Status
1 | (2/2) Accurately ripped
2 | (2/2) Accurately ripped
3 | (2/2) Accurately ripped
4 | (2/2) Accurately ripped
5 | (2/2) Accurately ripped
6 | (2/2) Accurately ripped
7 | (2/2) Accurately ripped
8 | (2/2) Accurately ripped
9 | (2/2) Accurately ripped
10 | (2/2) Accurately ripped
11 | (2/2) Accurately ripped
12 | (2/2) Accurately ripped
13 | (2/2) Accurately ripped
[AccurateRip ID: 00159c87-00d72ce3-ac0a5a0d] found.
Track [ CRC | V2 ] Status
01 [4e0edffb|f6903e2e] (0+2/2) Accurately ripped
02 [46f3fdfb|e6e7c605] (0+2/2) Accurately ripped
03 [f6849905|ef4eb9da] (0+2/2) Accurately ripped
04 [5907a5a7|3bb554c1] (0+2/2) Accurately ripped
05 [3112041c|ca5bfd66] (0+2/2) Accurately ripped
06 [cee2dfc8|a6d13b03] (0+2/2) Accurately ripped
07 [30c6ab30|e92ceeac] (0+2/2) Accurately ripped
08 [a06ec105|872b9fd3] (0+2/2) Accurately ripped
09 [ae098b8f|978cd665] (0+2/2) Accurately ripped
10 [9ab5d13c|46d4d12e] (0+2/2) Accurately ripped
11 [392ca87b|1145b3a9] (0+2/2) Accurately ripped
12 [d9c76369|885f3559] (0+2/2) Accurately ripped
13 [06a7100c|867ec26d] (0+2/2) Accurately ripped

Track Peak [ CRC32 ] [W/O NULL] [ LOG ]
– 99,8 [D16E30FF] [3DC97030] CRC32
01 99,8 [3F11C2DD] [1634D77C]
02 99,8 [D4E50F37] [20BF5586]
03 99,8 [11DF1848] [B290E0C7]
04 99,8 [273CA6F7] [E4AF8A65]
05 99,8 [FEB19AE1] [BEC6EC8D]
06 88,9 [AE12632D] [218712B0]
07 99,8 [7D5F59F5] [B8E8F312]
08 99,8 [846D5C2F] [B4C84007]
09 99,8 [459B9414] [E7D1B00F]
10 99,8 [6DAB069D] [1750FFB6]
11 99,8 [0089653F] [676780AC]
12 99,8 [3E92E8B8] [9A6AE4EB]
13 99,8 [847ED22A] [360F679D]

Thanks to transgressions

See also:
Ariel - A Strange Fantastic Dream (1974) [Reissue 2001]
Spectrum - 2 Studio Albums (1971) [Reissue 2007-2008]