Subcategories

Juan Crisostomo de Arriaga - Orchestral Works (Il Fondamento)

Posted By: tapaz9
Juan Crisostomo de Arriaga - Orchestral Works (Il Fondamento)

Juan Crisostomo de Arriaga - Orchestral Works (Il Fondamento)
Classical | EAC: FLAC+Cue+Log | 1 Cd, Covers | 275 Mb
Label: Fuga Libera - Date: 2007

After their highly acclaimed recordings of Arriaga's complete works, Paul Dombrecht and his splendid Il Fondamento ensemble bring his orchestral works to us with the same level of performance. With their unique mixture of lyricism and science, breathtaking from such a young composer, the four works assembled here build a most welcome integral recording on period instruments, performed with the most communicative warmth from scores scrupulously based on the original transcripts. The program is obviously dominated by the symphony, which can be put on the same level as Schubert's contemporary masterworks.
Tracks:

01. Obertura, op.20 (1821) [0:10:51.25]
02. Symphonie a Grande Orchestre (ca. 1824) 1. Adagio - Allegro vivace - Presto [0:09:57.60]
03. II. Andate [0:08:26.27]
04. III. Minuetto, Allegro - Trio [0:03:55.55]
05. IV. Allegro con moto [0:07:16.13]
06. Obertura de 'Los esclavos felices' (1819) [0:10:06.50]
07. Obertura op.1 (1818) [0:08:30.30]


Exact Audio Copy V1.0 beta 3 from 29. August 2011

EAC extraction logfile from 10. January 2013, 0:14

Juan Crisostomo de Arriaga / Orchestral Works (Il Fondamento)

Used drive : TSSTcorpCDDVDW SH-S223C Adapter: 2 ID: 1

Read mode : Secure
Utilize accurate stream : Yes
Defeat audio cache : Yes
Make use of C2 pointers : No

Read offset correction : 697
Overread into Lead-In and Lead-Out : No
Fill up missing offset samples with silence : Yes
Delete leading and trailing silent blocks : No
Null samples used in CRC calculations : Yes
Used interface : Native Win32 interface for Win NT & 2000

Used output format : User Defined Encoder
Selected bitrate : 896 kBit/s
Quality : High
Add ID3 tag : No
Command line compressor : C:\Program Files (x86)\Exact Audio Copy\FLAC\FLAC.EXE
Additional command line options : -V -0 -T "COMMENT=Ripped by Tapaz9" -T "artist=%artist%" -T "title=%title%" -T "album=%albumtitle%" -T "date=%year%" -T "tracknumber=%tracknr%" -T "genre=%genre%" %source%


TOC of the extracted CD

Track | Start | Length | Start sector | End sector
––––––––––––––––––––––––––––-
1 | 0:00.00 | 10:51.25 | 0 | 48849
2 | 10:51.25 | 9:57.60 | 48850 | 93684
3 | 20:49.10 | 8:26.27 | 93685 | 131661
4 | 29:15.37 | 3:55.55 | 131662 | 149341
5 | 33:11.17 | 7:16.13 | 149342 | 182054
6 | 40:27.30 | 10:06.50 | 182055 | 227554
7 | 50:34.05 | 8:30.30 | 227555 | 265834


Range status and errors

Selected range

Filename F:\Musique\Arriaga\Arriaga_OrchestralWorks\Juan Crisostomo de Arriaga - Orchestral Works (Il Fondamento).wav

Peak level 93.4 %
Extraction speed 13.4 X
Range quality 99.9 %
Copy CRC 84F61155
Copy OK

No errors occurred

End of status report

==== Log checksum C616FC85F6B2726FF2091FB1FB6D4A73A2C8434A641F473FBD65E0DF322C00EE ====

No Mirrors and Torrent-uploads Please

See my classical digital download posts in the Vinyl & HR section or check out My Avax blog