Ars Nova, Bo Holten - Lassus: Lagrime di San Pietro (1995)

Posted By: tirexiss
Ars Nova, Bo Holten - Lassus: Lagrime di San Pietro (1995)

Ars Nova, Bo Holten - Lassus: Lagrime di San Pietro (1995)
EAC | FLAC (image+.cue, log) | Covers Included | 54:44 | 232 MB
Genre: Classical, Sacred | Label: Naxos | Catalog: 8.553311

Orlando Lassus (1532 - 1594) by all accounts seems to have been a colorful character. Throughout his life he outrageously used works with quite frankly erotic overtones as the basis of his sacred works in blatant defiance of the Counter Reformation puritanism whose mood was set by the Council of Trent. However, at the end of his life Lassus suffered a fit of deep depression accompanied by a sudden paroxysm of religious penitence, the result of which was his Lagrime. For once parody of erotic chansons are absent but the work is still typically gushing with emotion, only this time they are of penitence, guilt and melancholia, replete with a kaleidoscopic madrigalian display of emotional color, which lies only partially concealed beneath a noble veil of austere outward dignity, reflecting the escalating religious severity of the Counter Reformation. Tasteless these works are never, nor histrionic - that is something of which Lassus really is incapable. They represent a truly convincing blend of the most avant-garde madrigalian style of composition with the heritage of polyphony of which Lassus was a true heir. Remarkably for a composer at the end of his career, Lassus displays all of the latest fashions in music, which can be seen here - not only in the use of a more arioso madriagalian style than usual for him - but also in the use of antiphonal, and even homophonic passages. The work represents a beautiful and masterly balance of color and austerity, of the traditional and avant-garde. Six weeks after the completion of the Lagrime, Orlando di Lasso passed away, making it the final legacy of this truly great composer of Western music.

Ars Nova, Bo Holten - Lassus: Lagrime di San Pietro (1995)

Track List:

Orlande de Lassus (Orlando di Lasso) (1532-1594)

01. Il Magnanimo Pietro
02. Ma gli archi
03. Tre volte haveva a l'importuna e audace
04. Qual' a l'incontro di quegli occhi santi
05. Giovane donna il suo bel volto in specchio
06. Cosi tal'hor
07. Ogni occhio del Signor lingua veloce
08. Nessun fedel trovai, nessun cortese
09. Chi ad una ad una raccontar potesse
10. Come falda di neve
11. E non fu il pianto suo rivo o Torrente
12. Quel volto
13. Veduto il miser quanto differente
14. E vago d'incontrar chi giusta pena
15. Vattene vitav va
16. O vita troppo rea
17. A quanti gia felici in giovinezza
18. Non trovava mia fe se duro intoppo
19. Queste opre e piu
20. Negando il mio Signor
21. Vide homo

Performers:
Ars Nova
Bo Holten

Exact Audio Copy V1.1 from 23. June 2015

EAC extraction logfile from 15. July 2017, 1:52

Ars Nova, Bo Holten / Lassus - Lagrime di San Pietro

Used drive : PLDS DVD-RW DU8A6SH Adapter: 1 ID: 0

Read mode : Secure
Utilize accurate stream : Yes
Defeat audio cache : Yes
Make use of C2 pointers : No

Read offset correction : 6
Overread into Lead-In and Lead-Out : No
Fill up missing offset samples with silence : Yes
Delete leading and trailing silent blocks : No
Null samples used in CRC calculations : Yes
Used interface : Native Win32 interface for Win NT & 2000

Used output format : User Defined Encoder
Selected bitrate : 128 kBit/s
Quality : High
Add ID3 tag : No
Command line compressor : C:\Program Files (x86)\Exact Audio Copy\Flac\flac.exe
Additional command line options : -V -8 -T "Date=%year%" -T "Genre=%genre%" %source%


TOC of the extracted CD

Track | Start | Length | Start sector | End sector
––––––––––––––––––––––––––––-
1 | 0:00.00 | 2:20.32 | 0 | 10531
2 | 2:20.32 | 2:32.08 | 10532 | 21939
3 | 4:52.40 | 2:19.07 | 21940 | 32371
4 | 7:11.47 | 2:36.33 | 32372 | 44104
5 | 9:48.05 | 2:27.72 | 44105 | 55201
6 | 12:16.02 | 2:09.00 | 55202 | 64876
7 | 14:25.02 | 2:18.60 | 64877 | 75286
8 | 16:43.62 | 2:57.33 | 75287 | 88594
9 | 19:41.20 | 2:21.67 | 88595 | 99236
10 | 22:03.12 | 2:47.25 | 99237 | 111786
11 | 24:50.37 | 2:16.08 | 111787 | 121994
12 | 27:06.45 | 2:46.72 | 121995 | 134516
13 | 29:53.42 | 3:00.35 | 134517 | 148051
14 | 32:54.02 | 2:56.50 | 148052 | 161301
15 | 35:50.52 | 2:16.05 | 161302 | 171506
16 | 38:06.57 | 2:33.30 | 171507 | 183011
17 | 40:40.12 | 2:40.20 | 183012 | 195031
18 | 43:20.32 | 2:25.40 | 195032 | 205946
19 | 45:45.72 | 2:22.53 | 205947 | 216649
20 | 48:08.50 | 2:24.65 | 216650 | 227514
21 | 50:33.40 | 4:11.37 | 227515 | 246376


Range status and errors

Selected range

Filename C:\temp\Lassus - Lagrime di San Pietro - Ars Nova, Bo Holten\Lassus - Lagrime di San Pietro.wav

Peak level 92.9 %
Extraction speed 3.7 X
Range quality 100.0 %
Test CRC C0F09D6A
Copy CRC C0F09D6A
Copy OK

No errors occurred


AccurateRip summary

Track 1 cannot be verified as accurate (confidence 2) [75D21776], AccurateRip returned [22A8D6AD] (AR v2)
Track 2 cannot be verified as accurate (confidence 2) [993ACE88], AccurateRip returned [0202C397] (AR v2)
Track 3 cannot be verified as accurate (confidence 2) [F02C9C5B], AccurateRip returned [5BAA27C4] (AR v2)
Track 4 cannot be verified as accurate (confidence 2) [E1FEC39F], AccurateRip returned [BD255F36] (AR v2)
Track 5 cannot be verified as accurate (confidence 2) [786CDBB1], AccurateRip returned [5AB03B6A] (AR v2)
Track 6 cannot be verified as accurate (confidence 2) [90621C60], AccurateRip returned [57CFDD68] (AR v2)
Track 7 cannot be verified as accurate (confidence 2) [61F437CA], AccurateRip returned [E80ED5BB] (AR v2)
Track 8 cannot be verified as accurate (confidence 2) [899DC68F], AccurateRip returned [087F730C] (AR v2)
Track 9 cannot be verified as accurate (confidence 2) [4F71526B], AccurateRip returned [82514184] (AR v2)
Track 10 cannot be verified as accurate (confidence 2) [935306A4], AccurateRip returned [8BE28B5D] (AR v2)
Track 11 cannot be verified as accurate (confidence 2) [4AD08BDE], AccurateRip returned [65897C04] (AR v2)
Track 12 cannot be verified as accurate (confidence 2) [ECF4E4EC], AccurateRip returned [4DEAEF6D] (AR v2)
Track 13 cannot be verified as accurate (confidence 2) [77D53B32], AccurateRip returned [219E4395] (AR v2)
Track 14 cannot be verified as accurate (confidence 2) [E2916DF2], AccurateRip returned [AC6AA463] (AR v2)
Track 15 cannot be verified as accurate (confidence 2) [BA2F862A], AccurateRip returned [064E897F] (AR v2)
Track 16 cannot be verified as accurate (confidence 2) [125C18E8], AccurateRip returned [101A6DBF] (AR v2)
Track 17 cannot be verified as accurate (confidence 2) [6317AA25], AccurateRip returned [2E9D3F84] (AR v2)
Track 18 cannot be verified as accurate (confidence 2) [4CBAD752], AccurateRip returned [196D0306] (AR v2)
Track 19 cannot be verified as accurate (confidence 2) [6B8E7D24], AccurateRip returned [10678BA4] (AR v2)
Track 20 cannot be verified as accurate (confidence 2) [8B2FBE54], AccurateRip returned [08D46F0B] (AR v2)
Track 21 cannot be verified as accurate (confidence 2) [4C51A18E], AccurateRip returned [59AD0F06] (AR v2)

No tracks could be verified as accurate
You may have a different pressing from the one(s) in the database

End of status report

==== Log checksum FDF7D77ACE0806BE3757FDA59AED19E6415CFDE199B8F2AB8B8D81382852A466 ====

[CUETools log; Date: 05.08.2017 10:30:03; Version: 2.1.5]
[CTDB TOCID: KJLlz2fZ5b3Ua.G6TcSl_oWiBt8-] found.
Track | CTDB Status
1 | (20/20) Accurately ripped
2 | (20/20) Accurately ripped
3 | (20/20) Accurately ripped
4 | (20/20) Accurately ripped
5 | (20/20) Accurately ripped
6 | (20/20) Accurately ripped
7 | (20/20) Accurately ripped
8 | (20/20) Accurately ripped
9 | (20/20) Accurately ripped
10 | (20/20) Accurately ripped
11 | (20/20) Accurately ripped
12 | (20/20) Accurately ripped
13 | (20/20) Accurately ripped
14 | (20/20) Accurately ripped
15 | (20/20) Accurately ripped
16 | (20/20) Accurately ripped
17 | (20/20) Accurately ripped
18 | (20/20) Accurately ripped
19 | (20/20) Accurately ripped
20 | (20/20) Accurately ripped
21 | (20/20) Accurately ripped
[AccurateRip ID: 0027ea20-0267d3b8-2a0cd515] found.
Track [ CRC | V2 ] Status
01 [e076289d|75d21776] (0+0/8) No match
02 [0f94bde7|993ace88] (0+0/8) No match
03 [71368934|f02c9c5b] (0+0/8) No match
04 [d01d6026|e1fec39f] (0+0/6) No match
05 [951cac92|786cdbb1] (0+0/8) No match
06 [4d43e8b4|90621c60] (0+0/8) No match
07 [f75a82eb|61f437ca] (0+0/8) No match
08 [2d1c5268|899dc68f] (0+0/8) No match
09 [25c83c10|4f71526b] (0+0/8) No match
10 [979bc9c9|935306a4] (0+0/8) No match
11 [610d52d8|4ad08bde] (0+0/8) No match
12 [85d41399|ecf4e4ec] (0+0/8) No match
13 [829da395|77d53b32] (0+0/8) No match
14 [9d88926f|e2916df2] (0+0/8) No match
15 [86a7ef83|ba2f862a] (0+0/8) No match
16 [ecc44fab|125c18e8] (0+0/8) No match
17 [13814d90|6317aa25] (0+0/8) No match
18 [3814077e|4cbad752] (0+0/8) No match
19 [4271af44|6b8e7d24] (0+0/8) No match
20 [414d33c3|8b2fbe54] (0+0/8) No match
21 [7fad296e|4c51a18e] (0+0/6) No match
Offsetted by -12:
01 [22a8d6ad] (2/8) Accurately ripped
02 [0202c397] (2/8) Accurately ripped
03 [5baa27c4] (2/8) Accurately ripped
04 [bd255f36] (2/6) Accurately ripped
05 [5ab03b6a] (2/8) Accurately ripped
06 [57cfdd68] (2/8) Accurately ripped
07 [e80ed5bb] (2/8) Accurately ripped
08 [087f730c] (2/8) Accurately ripped
09 [82514184] (2/8) Accurately ripped
10 [8be28b5d] (2/8) Accurately ripped
11 [65897c04] (2/8) Accurately ripped
12 [4deaef6d] (2/8) Accurately ripped
13 [219e4395] (2/8) Accurately ripped
14 [ac6aa463] (2/8) Accurately ripped
15 [064e897f] (2/8) Accurately ripped
16 [101a6dbf] (2/8) Accurately ripped
17 [2e9d3f84] (2/8) Accurately ripped
18 [196d0306] (2/8) Accurately ripped
19 [10678ba4] (2/8) Accurately ripped
20 [08d46f0b] (2/8) Accurately ripped
21 [59ad0f06] (2/6) Accurately ripped
Offsetted by -6:
01 [818f7fa5] (0/8) No match (V2 was not tested)
02 [08cbc0bf] (0/8) No match (V2 was not tested)
03 [6670587c] (0/8) No match (V2 was not tested)
04 [c6a15fae] (0/6) No match (V2 was not tested)
05 [77e673fe] (0/8) No match (V2 was not tested)
06 [5289e30e] (0/8) No match (V2 was not tested)
07 [6fb4ac53] (0/8) No match (V2 was not tested)
08 [1acde2ba] (0/8) No match (V2 was not tested)
09 [d40cbeca] (0/8) No match (V2 was not tested)
10 [11bf2a93] (0/8) No match (V2 was not tested)
11 [634b676e] (0/8) No match (V2 was not tested)
12 [e9df8183] (0/8) No match (V2 was not tested)
13 [d21df395] (0/8) No match (V2 was not tested)
14 [24f99b69] (0/8) No match (V2 was not tested)
15 [467b3c81] (0/8) No match (V2 was not tested)
16 [fe6f5eb5] (0/8) No match (V2 was not tested)
17 [210f468a] (0/8) No match (V2 was not tested)
18 [a8c08542] (0/8) No match (V2 was not tested)
19 [a96c9d74] (0/8) No match (V2 was not tested)
20 [a510d167] (0/8) No match (V2 was not tested)
21 [6cad1c3a] (0/6) No match (V2 was not tested)
Offsetted by 80:
01 [27244add] (2/8) Accurately ripped
02 [14b742a7] (2/8) Accurately ripped
03 [5633bd74] (2/8) Accurately ripped
04 [f93d6666] (0/6) No match (V2 was not tested)
05 [6fef9ef2] (2/8) Accurately ripped
06 [06f43404] (2/8) Accurately ripped
07 [07fdb02b] (2/8) Accurately ripped
08 [21322378] (2/8) Accurately ripped
09 [1236c260] (2/8) Accurately ripped
10 [e5c41499] (2/8) Accurately ripped
11 [4326eb08] (2/8) Accurately ripped
12 [a53baf69] (2/8) Accurately ripped
13 [09442395] (2/8) Accurately ripped
14 [3a501abf] (2/8) Accurately ripped
15 [88fbecf3] (2/8) Accurately ripped
16 [0130dc7b] (2/8) Accurately ripped
17 [b41c55e0] (2/8) Accurately ripped
18 [046d7a9e] (2/8) Accurately ripped
19 [900a9cc4] (2/8) Accurately ripped
20 [0f1cfde3] (2/8) Accurately ripped
21 [7d032ece] (0/6) No match (V2 was not tested)

Track Peak [ CRC32 ] [W/O NULL] [ LOG ]
– 92,9 [C0F09D6A] [A335192C] CRC32
01 82,4 [2C1D788F] [27DF0313]
02 72,2 [4EF4019D] [3CCF0C6A]
03 83,6 [4B57299A] [E97E4965]
04 79,0 [5A2B2541] [C67CB3FD]
05 67,9 [8A37F4A8] [F89964E8]
06 45,3 [C721A8FD] [D91077C1]
07 77,1 [DCBEAECE] [61ECDB28]
08 64,2 [1CE2F389] [313D6F20]
09 59,2 [3FEBB0F7] [8598DF1C]
10 58,3 [E961A957] [63D05082]
11 59,3 [39826627] [8F743D41]
12 72,0 [EAEF6F82] [C18296C6]
13 64,8 [4FB5FC7D] [95D44953]
14 90,2 [B5F90859] [0D3F9344]
15 78,2 [A2241C07] [BF545513]
16 60,1 [6613D942] [2F92B7F7]
17 54,2 [949212D5] [8B6E622C]
18 84,0 [81BA605D] [F10C3F3E]
19 92,9 [97EC8B7D] [F26B870D]
20 69,6 [59EAF630] [6525FF0E]
21 92,6 [E0BE412F] [9D92F1A7]

Thanks to the Original ripper A-Z!

Download: