Art Farmer-Benny Golson Jazztet - Here And Now (1962) {1998, Limited Edition, Remastered}

Posted By: popsakov
Art Farmer-Benny Golson Jazztet - Here And Now (1962) {1998, Limited Edition, Remastered}

Art Farmer-Benny Golson Jazztet - Here And Now (1962) {1998, Limited Edition, Remastered}
EAC Rip | WV (Img) + Cue + Log ~ 308 Mb | MP3 CBR320 ~ 121 Mb
Scans (PNG, 300 dpi) ~ 203 Mb | RAR 5% Recovery
Jazz, Hard Bop | Verve Records #314 558 052-2

The Jazztet had been in existence for two years when they recorded what would be their final LPs, this date plus Another Git Together. The personnel (other than the two co-leaders flugelhornist Art Farmer and tenor-saxophonist Benny Golson) had completely changed since 1960 but the group sound was the same. The 1962 version of the Jazztet included trombonist Grachan Moncur III, pianist Harold Mabern, bassist Herbie Lewis and drummer Roy McCurdy and it is remarkable to think that this talent-filled group could not find enough jobs in order to stay together. Highlights of their excellent out-of-print LP include Ray Bryant's "Tonk," "Whisper Not," "Just in Time" and Thelonious Monk's "Ruby My Dear." A classic if short-lived hard bop group.
~ Scott Yanow, All Music

***************

Art Farmer-Benny Golson Jazztet - Here And Now (1962) {1998, Limited Edition, Remastered}

Track List:

01. Tonk [6:49]
02. Rue Prevail [4:26]
03. Richie's Dilemma [5:11]
04. Whisper Not [5:21]
05. Just In Time [5:27]
06. Ruby, My Dear [5:11]
07. In Love In Vain [7:12]
08. Sonny's Back [4:21]
09. Tonk (45 Rpm Take) [3:11]
10. Sonny's Back (45 Rpm Take) [2:51]

Personnel:
Bass – Herbie Lewis
Drums – Roy McCurdy
Flugelhorn – Art Farmer (tracks: 1, 2, 4 to 7, 9, 10)
Piano – Harold Mabern
Tenor Saxophone – Benny Golson
Trombone – Grachan Moncur III
Trumpet – Art Farmer (tracks: 3, 8)

Recorded 1962 at Nola Studios, New York City
#2,5,6,7 recorded February 28
#1,3,4,8 and probably 9 and 10 recorded March 2

Exact Audio Copy V1.0 beta 3 from 29. August 2011

EAC extraction logfile from 18. December 2012, 8:49

The Jazztet / Here and Now

Used drive : HL-DT-STBDDVDRW GBC-H20N Adapter: 1 ID: 0

Read mode : Secure
Utilize accurate stream : Yes
Defeat audio cache : Yes
Make use of C2 pointers : No

Read offset correction : 667
Overread into Lead-In and Lead-Out : No
Fill up missing offset samples with silence : Yes
Delete leading and trailing silent blocks : No
Null samples used in CRC calculations : Yes
Used interface : Native Win32 interface for Win NT & 2000

Used output format : User Defined Encoder
Selected bitrate : 1024 kBit/s
Quality : High
Add ID3 tag : No
Command line compressor : C:\Program Files\Exact Audio Copy\wavpack.exe
Additional command line options : -hm %source% %dest%


TOC of the extracted CD

Track | Start | Length | Start sector | End sector
––––––––––––––––––––––––––––-
1 | 0:00.32 | 6:48.45 | 32 | 30676
2 | 6:49.02 | 4:26.33 | 30677 | 50659
3 | 11:15.35 | 5:10.62 | 50660 | 73971
4 | 16:26.22 | 5:20.43 | 73972 | 98014
5 | 21:46.65 | 5:27.00 | 98015 | 122539
6 | 27:13.65 | 5:10.72 | 122540 | 145861
7 | 32:24.62 | 7:12.30 | 145862 | 178291
8 | 39:37.17 | 4:21.25 | 178292 | 197891
9 | 43:58.42 | 3:10.58 | 197892 | 212199
10 | 47:09.25 | 2:50.60 | 212200 | 225009


Range status and errors

Selected range

Filename C:\Users\ProgDog\Music\ZALIVKI\Single albums\Jazztet\Here And Now\The Jazztet - Here and Now.wav

Peak level 100.0 %
Extraction speed 6.0 X
Range quality 100.0 %
Test CRC AD769846
Copy CRC AD769846
Copy OK

No errors occurred


AccurateRip summary

Track 1 accurately ripped (confidence 2) [702A5F46] (AR v2)
Track 2 accurately ripped (confidence 2) [7DE3A270] (AR v2)
Track 3 accurately ripped (confidence 2) [BB6ABCBC] (AR v2)
Track 4 accurately ripped (confidence 2) [D3C116DA] (AR v2)
Track 5 accurately ripped (confidence 2) [2B1A4042] (AR v2)
Track 6 accurately ripped (confidence 2) [B8610718] (AR v2)
Track 7 accurately ripped (confidence 2) [1E72025D] (AR v2)
Track 8 accurately ripped (confidence 2) [3038AC00] (AR v2)
Track 9 accurately ripped (confidence 2) [1CC19DE4] (AR v2)
Track 10 accurately ripped (confidence 2) [94AB99AD] (AR v2)

All tracks accurately ripped

End of status report

–– CUETools DB Plugin V2.1.3

[CTDB TOCID: 2O_pZ7c_L2iV1U6pRbqPKrAeciw-] disk not present in database, Submit result: discs with pregaps not supported in this protocol version


==== Log checksum A34CCB3E80150973A12EAAB7853EBD036B21D54224E14E4E170CE100E0F016ED ====

foobar2000 1.2.6 / Dynamic Range Meter 1.1.1
log date: 2017-01-10 02:42:28

––––––––––––––––––––––––––––––––––––––––
Analyzed: Art Farmer-Benny Golson Jazztet / Here and Now
––––––––––––––––––––––––––––––––––––––––

DR Peak RMS Duration Track
––––––––––––––––––––––––––––––––––––––––
DR13 -2.18 dB -19.41 dB 6:49 01-Tonk
DR12 -4.98 dB -21.85 dB 4:26 02-Rue Prevail
DR13 -1.24 dB -18.06 dB 5:11 03-Richie's Dilemma
DR14 -4.13 dB -21.98 dB 5:21 04-Whisper Not
DR12 -2.94 dB -18.12 dB 5:27 05-Just In Time
DR12 -5.63 dB -21.85 dB 5:11 06-Ruby, My Dear
DR11 -4.05 dB -19.51 dB 7:12 07-In Love In Vain
DR12 0.00 dB -18.05 dB 4:21 08-Sonny's Back
DR11 -1.73 dB -16.65 dB 3:11 09-Tonk (45 Rpm Take)
DR11 -3.78 dB -17.10 dB 2:51 10-Sonny's Back (45 Rpm Take)
––––––––––––––––––––––––––––––––––––––––

Number of tracks: 10
Official DR value: DR12

Samplerate: 44100 Hz
Channels: 2
Bits per sample: 16
Bitrate: 816 kbps
Codec: WavPack
================================================================================

[CUETools log; Date: 10.01.2017 2:42:29; Version: 2.1.5]
Pregap length 00:00:32.
[CTDB TOCID: 2O_pZ7c_L2iV1U6pRbqPKrAeciw-] found.
Track | CTDB Status
1 | (6/6) Accurately ripped
2 | (6/6) Accurately ripped
3 | (6/6) Accurately ripped
4 | (6/6) Accurately ripped
5 | (6/6) Accurately ripped
6 | (6/6) Accurately ripped
7 | (6/6) Accurately ripped
8 | (6/6) Accurately ripped
9 | (5/6) Accurately ripped
10 | (5/6) Accurately ripped
[AccurateRip ID: 00145f70-00a1224d-930bb80a] found.
Track [ CRC | V2 ] Status
01 [fa01f939|702a5f46] (06+11/19) Accurately ripped
02 [43a835f2|7de3a270] (06+11/19) Accurately ripped
03 [65b9a317|bb6abcbc] (06+11/19) Accurately ripped
04 [1e238f5e|d3c116da] (06+11/19) Accurately ripped
05 [282012bd|2b1a4042] (06+11/19) Accurately ripped
06 [6b3cc51e|b8610718] (06+11/19) Accurately ripped
07 [e58ba3d9|1e72025d] (06+11/19) Accurately ripped
08 [2d9b6955|3038ac00] (06+11/19) Accurately ripped
09 [c0e08f1a|1cc19de4] (06+11/19) Accurately ripped
10 [3f511869|94ab99ad] (04+11/17) Accurately ripped
Offsetted by -664:
01 [fa809e71] (00/19) No match (V2 was not tested)
02 [5b775902] (00/19) No match (V2 was not tested)
03 [5262ed17] (00/19) No match (V2 was not tested)
04 [35694b06] (00/19) No match (V2 was not tested)
05 [1a5467b5] (00/19) No match (V2 was not tested)
06 [6f912746] (00/19) No match (V2 was not tested)
07 [d5476201] (00/19) No match (V2 was not tested)
08 [eb1f6444] (00/19) No match (V2 was not tested)
09 [6dc58e47] (00/19) No match (V2 was not tested)
10 [4089ca70] (00/17) No match (V2 was not tested)

Track Peak [ CRC32 ] [W/O NULL] [ LOG ]
– 100,0 [AD769846] [9A2BB90C] CRC32
01 77,8 [502B97D7] [AB10D19C]
02 56,3 [0E96910F] [51F94F05]
03 86,6 [9FD8CCB7] [8CF8531B]
04 62,1 [5912775F] [3697582D]
05 71,3 [1FFB53BC] [FA7560C7]
06 52,3 [0C5716A3] [6545F223]
07 62,7 [86CE07A1] [39971FE2]
08 100,0 [0F602C20] [947BA2D6]
09 81,9 [29E964AD] [D493F43D]
10 64,7 [80445F58] [AC18D7E2]

Art Farmer-Benny Golson Jazztet - Here And Now (1962) {1998, Limited Edition, Remastered}

Art Farmer-Benny Golson Jazztet - Here And Now (1962) {1998, Limited Edition, Remastered}

All thanks go to arizona-dream

> Visit my blog <