Subcategories

Art Porter - For Art's Sake (1998)

Posted By: tiburon
Art Porter - For Art's Sake (1998)

Art Porter - For Art's Sake (1998)
EAC 1.0b1 | FLAC tracks level 8 | Cue+Log+M3U | Full Scans 600dpi | 467MB + 5% Recovery
Genre: Jazz Funk, Smooth Jazz
Art Porter - For Art's Sake (1998)

Anytime a beloved young artist dies tragically, record companies scramble for leftovers that fans can treasure as a keepsake of a life and career cut short. Porter' s followers will love this tribute because it features a handful of previously unreleased recordings of the saxman in the live arena, where the tight studio-controlled funk of his four recordings was let loose into an improvisational setting. Anyone acquainted with Porter only through the easygoing soprano tracks played on smooth jazz radio will realize from these tracks – recorded at the 1996 North Sea Jazz Festival, not long before his drowning death in Thailand – that while the horn master chose a career in pop, he was also an exceptional, inventive jazz performer.
Track List
01. Lake Shore Drive 6:03
02. Flight Time 7:39
03. Mr. Porter 4:05
04. Little Rock 3:35
05. Passion Sunrise 3:16
06. Pocket City 5:02
07. Texas Hump 8:06
08. Straight To The Point 5:31
09. Lay Your Hands On Me 23:37
10. Christmas Song 2:47

musicians
Art Porter - soprano and alto saxes
Jeff Lorber - keyboards, drum programming
Gerald Albright - alto sax
Lee Ritenour - lead guitar
Paulinho Da Costa - percussion
John Robinson - drums
Paul Jackson, Jr. - guitar
Nathan East - bass
Alan Burroughs - guitar
Brian Danzy - keyboards
Ted Brewer - bass
Toby Williams - drums
Evan Marks - guitar
Alec Milstein - bass
Tom Aros - percussion
Guy Eckstine - drums, drum programming, keyboards
Paul Pesco - guitar
Oliver Leiber - guitar
Raymond Brown - trumpet
Tom Grant - piano

Produced by Art Porter, Guy Eckstine, Jeff Lorber and Tom Grant


Exact Audio Copy V1.0 beta 1 from 15. November 2010

EAC extraction logfile from 14. January 2013, 18:00

Art Porter / For Art's Sake

Used drive : ATAPI iHAS424 Y Adapter: 0 ID: 3

Read mode : Secure
Utilize accurate stream : Yes
Defeat audio cache : Yes
Make use of C2 pointers : No

Read offset correction : 48
Overread into Lead-In and Lead-Out : No
Fill up missing offset samples with silence : Yes
Delete leading and trailing silent blocks : No
Null samples used in CRC calculations : Yes
Used interface : Native Win32 interface for Win NT & 2000
Gap handling : Appended to previous track

Used output format : User Defined Encoder
Selected bitrate : 768 kBit/s
Quality : High
Add ID3 tag : No
Command line compressor : C:\Program Files\Exact Audio Copy\Flac\flac.exe
Additional command line options : -8 -V -T "ARTIST=%a" -T "TITLE=%t" -T "ALBUM=%g" -T "DATE=%y" -T "TRACKNUMBER=%n" -T "TOTALTRACKS=%x" -T "GENRE=%m" -T "ALBUMARTIST=%v" -T "ALBUM ARTIST=%v" -T "COMMENT=EAC Secure Mode, Test & Copy, AccurateRip, FLAC -8" %s


TOC of the extracted CD

Track | Start | Length | Start sector | End sector
––––––––––––––––––––––––––––-
1 | 0:00.00 | 6:03.15 | 0 | 27239
2 | 6:03.15 | 7:40.22 | 27240 | 61761
3 | 13:43.37 | 4:06.45 | 61762 | 80256
4 | 17:50.07 | 3:35.60 | 80257 | 96441
5 | 21:25.67 | 3:16.30 | 96442 | 111171
6 | 24:42.22 | 5:03.33 | 111172 | 133929
7 | 29:45.55 | 8:07.37 | 133930 | 170491
8 | 37:53.17 | 5:33.30 | 170492 | 195496
9 | 43:26.47 | 23:40.00 | 195497 | 301996
10 | 67:06.47 | 2:47.38 | 301997 | 314559


Track 1

Filename G:\Uploads\Art Porter - For Art's Sake (1998) [FLAC]\01 - Lake Shore Drive.wav

Pre-gap length 0:00:02.00

Peak level 100.0 %
Extraction speed 2.7 X
Track quality 100.0 %
Test CRC E2CB7CC5
Copy CRC E2CB7CC5
Accurately ripped (confidence 2) [1969B270]
Copy OK

Track 2

Filename G:\Uploads\Art Porter - For Art's Sake (1998) [FLAC]\02 - Flight Time.wav

Peak level 100.0 %
Extraction speed 3.2 X
Track quality 100.0 %
Test CRC 9C449F09
Copy CRC 9C449F09
Accurately ripped (confidence 2) [A479C258]
Copy OK

Track 3

Filename G:\Uploads\Art Porter - For Art's Sake (1998) [FLAC]\03 - Mr. Porter.wav

Pre-gap length 0:00:01.12

Peak level 100.0 %
Extraction speed 3.2 X
Track quality 100.0 %
Test CRC 218C68A9
Copy CRC 218C68A9
Accurately ripped (confidence 2) [7FABE8C6]
Copy OK

Track 4

Filename G:\Uploads\Art Porter - For Art's Sake (1998) [FLAC]\04 - Little Rock.wav

Pre-gap length 0:00:01.07

Peak level 100.0 %
Extraction speed 3.4 X
Track quality 100.0 %
Test CRC 927E6037
Copy CRC 927E6037
Accurately ripped (confidence 2) [C6DA46BC]
Copy OK

Track 5

Filename G:\Uploads\Art Porter - For Art's Sake (1998) [FLAC]\05 - Passion Sunrise.wav

Pre-gap length 0:00:00.62

Peak level 53.2 %
Extraction speed 3.5 X
Track quality 100.0 %
Test CRC 235E2BF1
Copy CRC 235E2BF1
Accurately ripped (confidence 2) [377B388B]
Copy OK

Track 6

Filename G:\Uploads\Art Porter - For Art's Sake (1998) [FLAC]\06 - Pocket City.wav

Pre-gap length 0:00:02.35

Peak level 100.0 %
Extraction speed 3.8 X
Track quality 100.0 %
Test CRC 0BC0BA64
Copy CRC 0BC0BA64
Accurately ripped (confidence 2) [1819412A]
Copy OK

Track 7

Filename G:\Uploads\Art Porter - For Art's Sake (1998) [FLAC]\07 - Texas Hump.wav

Pre-gap length 0:00:01.50

Peak level 100.0 %
Extraction speed 4.1 X
Track quality 99.9 %
Test CRC 479BA7C9
Copy CRC 479BA7C9
Accurately ripped (confidence 2) [BB5737B4]
Copy OK

Track 8

Filename G:\Uploads\Art Porter - For Art's Sake (1998) [FLAC]\08 - Straight To The Point.wav

Pre-gap length 0:00:01.47

Peak level 100.0 %
Extraction speed 4.0 X
Track quality 99.9 %
Test CRC 7DF35776
Copy CRC 7DF35776
Accurately ripped (confidence 2) [C7E00600]
Copy OK

Track 9

Filename G:\Uploads\Art Porter - For Art's Sake (1998) [FLAC]\09 - Lay Your Hands On Me.wav

Pre-gap length 0:00:02.07

Peak level 100.0 %
Extraction speed 5.4 X
Track quality 100.0 %
Test CRC A3E22D2B
Copy CRC A3E22D2B
Accurately ripped (confidence 2) [959D227F]
Copy OK

Track 10

Filename G:\Uploads\Art Porter - For Art's Sake (1998) [FLAC]\10 - Christmas Song.wav

Pre-gap length 0:00:03.17

Peak level 100.0 %
Extraction speed 4.9 X
Track quality 100.0 %
Test CRC 7E125A1B
Copy CRC 7E125A1B
Accurately ripped (confidence 2) [9AB37DDA]
Copy OK


All tracks accurately ripped

No errors occurred

End of status report

==== Log checksum 912B2473C3ACF940F5F5244FDA84F86FD594DFEA3062A1C681FD1FBCE80C8196 ====


––––––––––––––––––––––––––––––––––––––––
Analyzed: Art Porter / For Art's Sake
––––––––––––––––––––––––––––––––––––––––

DR Peak RMS Duration Track
––––––––––––––––––––––––––––––––––––––––
DR8 0.00 dB -9.18 dB 6:03 01-Lake Shore Drive
DR8 0.00 dB -9.55 dB 7:40 02-Flight Time
DR10 0.00 dB -11.32 dB 4:07 03-Mr. Porter
DR11 0.00 dB -13.02 dB 3:36 04-Little Rock
DR12 -5.48 dB -22.23 dB 3:16 05-Passion Sunrise
DR8 0.00 dB -9.02 dB 5:03 06-Pocket City
DR9 0.00 dB -11.27 dB 8:07 07-Texas Hump
DR10 0.00 dB -10.89 dB 5:33 08-Straight To The Point
DR10 0.00 dB -11.78 dB 23:40 09-Lay Your Hands On Me
DR12 0.00 dB -15.10 dB 2:48 10-Christmas Song
––––––––––––––––––––––––––––––––––––––––

Number of tracks: 10
Official DR value: DR10

Samplerate: 44100 Hz
Channels: 2
Bits per sample: 16
Bitrate: 726 kbps
Codec: FLAC
================================================================================

Art Porter - For Art's Sake (1998)
Art Porter - For Art's Sake (1998)
Art Porter - For Art's Sake (1998)


Rip by albundy