Subcategories

Art Porter - Pocket City (1992)

Posted By: tiburon
Art Porter - Pocket City (1992)

Art Porter - Pocket City (1992)
EAC 1.0b1 | FLAC tracks level 8 | Cue+Log+M3U | Full Scans 600dpi | 379MB + 5% Recovery
Genre: Smooth Jazz, Jazz Funk
Art Porter - Pocket City (1992)

A '92 session mixing fusion, R&B, and light jazz by Art Porter with a host of guest stars and participants, including Jeff Lorber, Paul Jackson, Jr., Buzz Feiten, Paul Pesco, Paulinho Da Costa, and Valeri Davis. There are also some vocals and elaborate production.
Track List
01. Pocket City 5:18
02. Inside Myself 5:37
03. Unending 4:58
04. Passion Sunrise 6:32
05. Texas Hump 4:26
06. Close To You 4:15
07. Little People 6:03
08. KGB 4:18
09. Broken Promise 6:31
10. Meltdown 4:06
11. L.A. 5:35

musicians
Art Porter - alto and soprano saxes
Jeff Lorber - keyboards, drum programming
Alec Milstein - bass
Paul Jackson, Jr. - guitar on tracks 2, 3, 4, 7, 8, 11
Paulinho Da Costa - percussion
Buzz Feiten - guitar on tracks 5, 7
Paul Pesco - guitar on track 1
Mark Shapiro - guitar on track 10
Guy Eckstine - percussion, cymbals
Brigitte McWilliams - background vocals
Valerie Davis - background vocals

Produced by Jeff Lorber


Exact Audio Copy V1.0 beta 1 from 15. November 2010

EAC extraction logfile from 14. January 2013, 18:38

Art Porter / Pocket City

Used drive : ATAPI iHAS424 Y Adapter: 0 ID: 3

Read mode : Secure
Utilize accurate stream : Yes
Defeat audio cache : Yes
Make use of C2 pointers : No

Read offset correction : 48
Overread into Lead-In and Lead-Out : No
Fill up missing offset samples with silence : Yes
Delete leading and trailing silent blocks : No
Null samples used in CRC calculations : Yes
Used interface : Native Win32 interface for Win NT & 2000
Gap handling : Appended to previous track

Used output format : User Defined Encoder
Selected bitrate : 768 kBit/s
Quality : High
Add ID3 tag : No
Command line compressor : C:\Program Files\Exact Audio Copy\Flac\flac.exe
Additional command line options : -8 -V -T "ARTIST=%a" -T "TITLE=%t" -T "ALBUM=%g" -T "DATE=%y" -T "TRACKNUMBER=%n" -T "TOTALTRACKS=%x" -T "GENRE=%m" -T "ALBUMARTIST=%v" -T "ALBUM ARTIST=%v" -T "COMMENT=EAC Secure Mode, Test & Copy, AccurateRip, FLAC -8" %s


TOC of the extracted CD

Track | Start | Length | Start sector | End sector
––––––––––––––––––––––––––––-
1 | 0:00.33 | 5:18.42 | 33 | 23924
2 | 5:19.00 | 5:37.28 | 23925 | 49227
3 | 10:56.28 | 4:58.10 | 49228 | 71587
4 | 15:54.38 | 6:32.60 | 71588 | 101047
5 | 22:27.23 | 4:26.32 | 101048 | 121029
6 | 26:53.55 | 4:15.35 | 121030 | 140189
7 | 31:09.15 | 6:03.65 | 140190 | 167479
8 | 37:13.05 | 4:18.50 | 167480 | 186879
9 | 41:31.55 | 6:31.00 | 186880 | 216204
10 | 48:02.55 | 4:06.43 | 216205 | 234697
11 | 52:09.23 | 5:35.50 | 234698 | 259872


Track 1

Filename G:\Uploads\Art Porter - Pocket City (1992) [FLAC]\01 - Pocket City.wav

Pre-gap length 0:00:02.33

Peak level 100.0 %
Extraction speed 2.5 X
Track quality 100.0 %
Test CRC 676BBB7A
Copy CRC 676BBB7A
Accurately ripped (confidence 4) [F1AAA387]
Copy OK

Track 2

Filename G:\Uploads\Art Porter - Pocket City (1992) [FLAC]\02 - Inside Myself.wav

Pre-gap length 0:00:01.72

Peak level 95.8 %
Extraction speed 2.6 X
Track quality 99.9 %
Test CRC 78BC64C2
Copy CRC 78BC64C2
Accurately ripped (confidence 4) [F8704144]
Copy OK

Track 3

Filename G:\Uploads\Art Porter - Pocket City (1992) [FLAC]\03 - Unending.wav

Pre-gap length 0:00:01.65

Peak level 96.2 %
Extraction speed 3.1 X
Track quality 100.0 %
Test CRC D5CC8321
Copy CRC D5CC8321
Accurately ripped (confidence 3) [1FEC4F31]
Copy OK

Track 4

Filename G:\Uploads\Art Porter - Pocket City (1992) [FLAC]\04 - Passion Sunrise.wav

Pre-gap length 0:00:02.40

Peak level 100.0 %
Extraction speed 3.2 X
Track quality 99.9 %
Test CRC 53567310
Copy CRC 53567310
Accurately ripped (confidence 4) [B2F3E9DC]
Copy OK

Track 5

Filename G:\Uploads\Art Porter - Pocket City (1992) [FLAC]\05 - Texas Hump.wav

Pre-gap length 0:00:02.60

Peak level 99.8 %
Extraction speed 3.6 X
Track quality 100.0 %
Test CRC CE3EF57D
Copy CRC CE3EF57D
Accurately ripped (confidence 4) [1689881D]
Copy OK

Track 6

Filename G:\Uploads\Art Porter - Pocket City (1992) [FLAC]\06 - Close To You.wav

Pre-gap length 0:00:05.55

Peak level 96.1 %
Extraction speed 3.8 X
Track quality 100.0 %
Test CRC CCD535A8
Copy CRC CCD535A8
Accurately ripped (confidence 4) [2A017E79]
Copy OK

Track 7

Filename G:\Uploads\Art Porter - Pocket City (1992) [FLAC]\07 - Little People.wav

Pre-gap length 0:00:02.30

Peak level 98.6 %
Extraction speed 4.1 X
Track quality 100.0 %
Test CRC 8935CBD0
Copy CRC 8935CBD0
Accurately ripped (confidence 4) [B1651B86]
Copy OK

Track 8

Filename G:\Uploads\Art Porter - Pocket City (1992) [FLAC]\08 - KGB.wav

Pre-gap length 0:00:03.32

Peak level 95.8 %
Extraction speed 3.6 X
Track quality 99.9 %
Test CRC DCFEB66F
Copy CRC DCFEB66F
Accurately ripped (confidence 4) [5E6190C5]
Copy OK

Track 9

Filename G:\Uploads\Art Porter - Pocket City (1992) [FLAC]\09 - Broken Promise.wav

Pre-gap length 0:00:04.50

Peak level 98.6 %
Extraction speed 4.5 X
Track quality 100.0 %
Test CRC 7B028C0A
Copy CRC 7B028C0A
Accurately ripped (confidence 4) [1CD7D30B]
Copy OK

Track 10

Filename G:\Uploads\Art Porter - Pocket City (1992) [FLAC]\10 - Meltdown.wav

Pre-gap length 0:00:02.60

Peak level 96.0 %
Extraction speed 4.4 X
Track quality 100.0 %
Test CRC 280F2FD9
Copy CRC 280F2FD9
Accurately ripped (confidence 4) [3192DCAE]
Copy OK

Track 11

Filename G:\Uploads\Art Porter - Pocket City (1992) [FLAC]\11 - L.A..wav

Pre-gap length 0:00:02.20

Peak level 90.4 %
Extraction speed 4.8 X
Track quality 100.0 %
Test CRC 264FF465
Copy CRC 264FF465
Accurately ripped (confidence 3) [9586BE75]
Copy OK


All tracks accurately ripped

No errors occurred

End of status report

==== Log checksum 1AE46D0CA1F9C7127216853B6E42435D79A3BCED12CA87CAAB21FBF9D0DE3E39 ====


––––––––––––––––––––––––––––––––––––––––
Analyzed: Art Porter / Pocket City
––––––––––––––––––––––––––––––––––––––––

DR Peak RMS Duration Track
––––––––––––––––––––––––––––––––––––––––
DR10 0.00 dB -11.81 dB 5:19 01-Pocket City
DR10 -0.37 dB -12.44 dB 5:37 02-Inside Myself
DR10 -0.33 dB -11.24 dB 4:58 03-Unending
DR10 0.00 dB -11.88 dB 6:33 04-Passion Sunrise
DR10 -0.01 dB -11.62 dB 4:26 05-Texas Hump
DR11 -0.34 dB -12.90 dB 4:15 06-Close To You
DR10 -0.12 dB -11.79 dB 6:04 07-Little People
DR10 -0.37 dB -11.63 dB 4:19 08-KGB
DR11 -0.12 dB -13.03 dB 6:31 09-Broken Promise
DR9 -0.35 dB -11.74 dB 4:07 10-Meltdown
DR10 -0.88 dB -12.62 dB 5:36 11-L.A.
––––––––––––––––––––––––––––––––––––––––

Number of tracks: 11
Official DR value: DR10

Samplerate: 44100 Hz
Channels: 2
Bits per sample: 16
Bitrate: 859 kbps
Codec: FLAC
================================================================================

Art Porter - Pocket City (1992)
Art Porter - Pocket City (1992)
Art Porter - Pocket City (1992)


Rip by albundy