Subcategories

Arthur Brown with Jimmy Carl Black - Brown, Black & Blue (1988) [Reissue 2009]

Posted By: gribovar
Arthur Brown with Jimmy Carl Black - Brown, Black & Blue (1988) [Reissue 2009]

Arthur Brown with Jimmy Carl Black - Brown, Black & Blue (1988) [Reissue 2009]
EAC Rip | FLAC (tracks+.cue+log) - 243 MB | MP3 CBR 320 kbps (LAME 3.93) - 85 MB | Covers - 71 MB
Genre: Rock | RAR 3% Rec. | Label: Lemon Recordings (CDLEM148)

Arthur Brown had practically owned the radio one summer with the insane hit "Fire" (1968), while Black was a former member of the Mothers of Invention, which under the leadership of Frank Zappa became perhaps the most notorious rock band in American history. These Austin sessions are more about the roots rock both Black and Brown love, and one could say they really didn't dig too far to find songs to cover, sticking to warhorses. Some listeners may find the list of titles a bit discouraging, in fact. Once past this roadblock, though, and the scenery gets nice as the musicians in the backseat find effective grooves and the two leaders keep things interesting, Brown with his original vocal style and Black with his soulful drumming.
Tracklist:
01. Fever
02. Monkey Walk
03. Unchain My Heart
04. Got My Mojo Working
05. Smokestack Lightnin'
06. Hound Dog
07. Help Me
08. The Right Time
09. Stand by Me
10. The Lord Is My Friend

Total time: 36:09

Exact Audio Copy V1.0 beta 1 from 15. November 2010

EAC extraction logfile from 19. July 2011, 12:26

Arthur Brown with Jimmy Carl Black / Brown, Black & Blue

Used drive : _NEC DVD_RW ND-3540A Adapter: 3 ID: 1

Read mode : Secure
Utilize accurate stream : Yes
Defeat audio cache : Yes
Make use of C2 pointers : No

Read offset correction : 48
Overread into Lead-In and Lead-Out : No
Fill up missing offset samples with silence : Yes
Delete leading and trailing silent blocks : No
Null samples used in CRC calculations : No
Used interface : Native Win32 interface for Win NT & 2000
Gap handling : Appended to previous track

Used output format : User Defined Encoder
Selected bitrate : 1024 kBit/s
Quality : High
Add ID3 tag : Yes
Command line compressor : C:\Program Files\FLAC\flac.exe
Additional command line options : -6 -V -T "ARTIST=%a" -T "TITLE=%t" -T "ALBUM=%g" -T "DATE=%y" -T "TRACKNUMBER=%n" -T "GENRE=%m" -T "COMMENT=%e" %s -o %d


TOC of the extracted CD

Track | Start | Length | Start sector | End sector
––––––––––––––––––––––––––––-
1 | 0:00.00 | 3:15.00 | 0 | 14624
2 | 3:15.00 | 3:49.69 | 14625 | 31868
3 | 7:04.69 | 3:18.40 | 31869 | 46758
4 | 10:23.34 | 5:15.42 | 46759 | 70425
5 | 15:39.01 | 4:16.01 | 70426 | 89626
6 | 19:55.02 | 2:18.46 | 89627 | 100022
7 | 22:13.48 | 3:28.07 | 100023 | 115629
8 | 25:41.55 | 4:00.38 | 115630 | 133667
9 | 29:42.18 | 3:58.35 | 133668 | 151552
10 | 33:40.53 | 2:28.73 | 151553 | 162725


Track 1

Filename D:\Music\olaf_alien\Arthur Brown With Jimmy Carl Black - Brown, Black & Blue (1987 - 2009, Lemon Recordings)\01 - Fever.wav

Pre-gap length 0:00:02.00

Peak level 100.0 %
Extraction speed 4.2 X
Track quality 100.0 %
Test CRC 201E61BE
Copy CRC 201E61BE
Accurately ripped (confidence 1) [0B28A08E]
Copy OK

Track 2

Filename D:\Music\olaf_alien\Arthur Brown With Jimmy Carl Black - Brown, Black & Blue (1987 - 2009, Lemon Recordings)\02 - Monkey Walk.wav

Pre-gap length 0:00:02.00

Peak level 99.9 %
Extraction speed 4.8 X
Track quality 100.0 %
Test CRC ED953DF1
Copy CRC ED953DF1
Accurately ripped (confidence 1) [736F686F]
Copy OK

Track 3

Filename D:\Music\olaf_alien\Arthur Brown With Jimmy Carl Black - Brown, Black & Blue (1987 - 2009, Lemon Recordings)\03 - Unchain My Heart.wav

Pre-gap length 0:00:02.00

Peak level 100.0 %
Extraction speed 5.0 X
Track quality 100.0 %
Test CRC E9E1CB22
Copy CRC E9E1CB22
Accurately ripped (confidence 1) [BF5219EE]
Copy OK

Track 4

Filename D:\Music\olaf_alien\Arthur Brown With Jimmy Carl Black - Brown, Black & Blue (1987 - 2009, Lemon Recordings)\04 - Got My Mojo Working.wav

Pre-gap length 0:00:02.00

Peak level 100.0 %
Extraction speed 5.7 X
Track quality 100.0 %
Test CRC 22520B7E
Copy CRC 22520B7E
Accurately ripped (confidence 1) [3373F2B9]
Copy OK

Track 5

Filename D:\Music\olaf_alien\Arthur Brown With Jimmy Carl Black - Brown, Black & Blue (1987 - 2009, Lemon Recordings)\05 - Smokestack Lightnin'.wav

Pre-gap length 0:00:02.00

Peak level 100.0 %
Extraction speed 5.0 X
Track quality 99.9 %
Test CRC A724E7A4
Copy CRC A724E7A4
Accurately ripped (confidence 1) [7B11AAD7]
Copy OK

Track 6

Filename D:\Music\olaf_alien\Arthur Brown With Jimmy Carl Black - Brown, Black & Blue (1987 - 2009, Lemon Recordings)\06 - Hound Dog.wav

Pre-gap length 0:00:02.00

Peak level 99.9 %
Extraction speed 5.6 X
Track quality 100.0 %
Test CRC E04420C5
Copy CRC E04420C5
Accurately ripped (confidence 1) [70A81A53]
Copy OK

Track 7

Filename D:\Music\olaf_alien\Arthur Brown With Jimmy Carl Black - Brown, Black & Blue (1987 - 2009, Lemon Recordings)\07 - Help Me.wav

Pre-gap length 0:00:02.00

Peak level 100.0 %
Extraction speed 6.3 X
Track quality 100.0 %
Test CRC A0CD36E4
Copy CRC A0CD36E4
Accurately ripped (confidence 1) [54FEB223]
Copy OK

Track 8

Filename D:\Music\olaf_alien\Arthur Brown With Jimmy Carl Black - Brown, Black & Blue (1987 - 2009, Lemon Recordings)\08 - The Right Time.wav

Pre-gap length 0:00:02.00

Peak level 100.0 %
Extraction speed 6.7 X
Track quality 100.0 %
Test CRC 5D49D8F6
Copy CRC 5D49D8F6
Accurately ripped (confidence 1) [FEE828E1]
Copy OK

Track 9

Filename D:\Music\olaf_alien\Arthur Brown With Jimmy Carl Black - Brown, Black & Blue (1987 - 2009, Lemon Recordings)\09 - Stand By Me.wav

Pre-gap length 0:00:02.00

Peak level 100.0 %
Extraction speed 6.9 X
Track quality 100.0 %
Test CRC 4CCF9BB2
Copy CRC 4CCF9BB2
Accurately ripped (confidence 1) [2DAC595E]
Copy OK

Track 10

Filename D:\Music\olaf_alien\Arthur Brown With Jimmy Carl Black - Brown, Black & Blue (1987 - 2009, Lemon Recordings)\10 - The Lord Is My Friend.wav

Pre-gap length 0:00:02.00

Peak level 100.0 %
Extraction speed 6.5 X
Track quality 100.0 %
Test CRC E3141BEE
Copy CRC E3141BEE
Accurately ripped (confidence 1) [D23BD6EE]
Copy OK


All tracks accurately ripped

No errors occurred

End of status report

[CUETools log; Date: 05.09.2017 9:00:50; Version: 2.1.4]
[CTDB TOCID: 45eabrk5GqZJcBBH6X_u.1gDsA8-] found.
Track | CTDB Status
1 | (7/7) Accurately ripped
2 | (7/7) Accurately ripped
3 | (7/7) Accurately ripped
4 | (7/7) Accurately ripped
5 | (7/7) Accurately ripped
6 | (7/7) Accurately ripped
7 | (7/7) Accurately ripped
8 | (7/7) Accurately ripped
9 | (7/7) Accurately ripped
10 | (7/7) Accurately ripped
[AccurateRip ID: 000dfdaa-006fee5b-7f08790a] found.
Track [ CRC | V2 ] Status
01 [0b28a08e|95f1bdf5] (3+0/3) Accurately ripped
02 [736f686f|623fdce1] (3+0/3) Accurately ripped
03 [bf5219ee|1a4fd509] (3+0/3) Accurately ripped
04 [3373f2b9|062c4fd2] (3+0/3) Accurately ripped
05 [7b11aad7|4f6b5384] (3+0/3) Accurately ripped
06 [70a81a53|2f2a43fb] (3+0/3) Accurately ripped
07 [54feb223|05f618e9] (3+0/3) Accurately ripped
08 [fee828e1|02aa6a8f] (3+0/3) Accurately ripped
09 [2dac595e|bd47d47e] (3+0/3) Accurately ripped
10 [d23bd6ee|fe46acf9] (3+0/3) Accurately ripped

Track Peak [ CRC32 ] [W/O NULL] [ LOG ]
– 100,0 [5A0639C7] [2908DCC2]
01 100,0 [B9D9E404] [201E61BE] W/O NULL
02 99,9 [754AE4FE] [ED953DF1] W/O NULL
03 100,0 [C8A76422] [E9E1CB22] W/O NULL
04 100,0 [8A6FD4D6] [22520B7E] W/O NULL
05 100,0 [7C7420CF] [A724E7A4] W/O NULL
06 99,9 [F3F950BA] [E04420C5] W/O NULL
07 100,0 [88B8C123] [A0CD36E4] W/O NULL
08 100,0 [CB49F15E] [5D49D8F6] W/O NULL
09 100,0 [AB92B52A] [4CCF9BB2] W/O NULL
10 100,0 [75589053] [E3141BEE] W/O NULL

Thanks to Olaf_alien

See also: