Subcategories

Arvo Part - Adam's Lament (2012) {ECM 2225}

Posted By: tiburon
Arvo Part - Adam's Lament (2012) {ECM 2225}

Arvo Part - Adam's Lament (2012) {ECM 2225}
EAC 1.0b1 | FLAC Image level 8 | Cue+Log | Full Scans (PDF) | 260MB + 5% Recovery
Genre: Classical, Tintinnabuli

Marshalling orchestral and choral forces under the direction of Tõnu Kaljuste, this new Arvo Pärt album, produced by Manfred Eicher and realized, like all Pärt’s ECM discs, with the composer’s participation, is a major event. Sacred music predominates, by turns monumentally powerful and tenderly fragile.

Track List
01. Adam's Lament (2009) 24:09
02. Beatus Petronius (1990/2011) 5:16
03. Salve Regina (2001/2011) 12:15
04. Statuit Ei Dominus (1990/2011) 4:57
05. Alleluia-Tropus (2008/2010) 2:39
06. L'Abbe Agathon (2004/2008) 14:04
07. Estonian Lullaby (2002/2006) 2:08
08. Christmas Lullaby (2002/2006) 2:27

musicians
Latvian Radio Choir
Sinfonietta Riga
Vox Clamantis
Estonian Philharmonic Chamber Choir
Tallinn Chamber Orchestra

Tõnu Kaljuste - conductor

Recorded May 2007 and November 2011

Produced by Manfred Eicher


Exact Audio Copy V1.0 beta 1 from 15. November 2010

EAC extraction logfile from 11. January 2013, 1:20

Arvo Part / Adam's Lament

Used drive : Optiarc DVD RW AD-7203A Adapter: 4 ID: 1

Read mode : Secure
Utilize accurate stream : Yes
Defeat audio cache : Yes
Make use of C2 pointers : No

Read offset correction : 48
Overread into Lead-In and Lead-Out : No
Fill up missing offset samples with silence : Yes
Delete leading and trailing silent blocks : No
Null samples used in CRC calculations : Yes
Used interface : Native Win32 interface for Win NT & 2000

Used output format : User Defined Encoder
Selected bitrate : 128 kBit/s
Quality : High
Add ID3 tag : No
Command line compressor : C:\Program Files\FLAC\flac.exe
Additional command line options : -T "COMMENT=Ripped by GFox" -8 -V %s


TOC of the extracted CD

Track | Start | Length | Start sector | End sector
––––––––––––––––––––––––––––-
1 | 0:00.00 | 24:09.40 | 0 | 108714
2 | 24:09.40 | 5:16.07 | 108715 | 132421
3 | 29:25.47 | 12:15.57 | 132422 | 187603
4 | 41:41.29 | 4:56.72 | 187604 | 209875
5 | 46:38.26 | 2:40.37 | 209876 | 221912
6 | 49:18.63 | 14:04.37 | 221913 | 285249
7 | 63:23.25 | 2:08.04 | 285250 | 294853
8 | 65:31.29 | 2:27.15 | 294854 | 305893


Range status and errors

Selected range

Filename D:\EAC\Arvo Part - Adam's Lament.wav

Peak level 99.0 %
Extraction speed 0.1 X
Range quality 99.9 %
Test CRC 1AEE6952
Copy CRC 1AEE6952
Copy OK

No errors occurred


AccurateRip summary

Track 1 not present in database
Track 2 not present in database
Track 3 not present in database
Track 4 not present in database
Track 5 not present in database
Track 6 not present in database
Track 7 not present in database
Track 8 not present in database

None of the tracks are present in the AccurateRip database

End of status report

==== Log checksum 07EB9D97C041C930B8D33B620A3F0A658898E2CC1FA3AA0D2073C2F99809CF0B ====


––––––––––––––––––––––––––––––––––––––––
Analyzed: Arvo Part / Adam's Lament
––––––––––––––––––––––––––––––––––––––––

DR Peak RMS Duration Track
––––––––––––––––––––––––––––––––––––––––
DR14 -0.08 dB -21.02 dB 24:10 01-Adam's Lament
DR14 -9.91 dB -29.65 dB 5:16 02-Beatus Petronius
DR15 -1.05 dB -24.10 dB 12:16 03-Salve Regina
DR13 -0.81 dB -20.48 dB 4:57 04-Statuit ei Dominus
DR12 -7.91 dB -27.57 dB 2:40 05-Alleluia-Tropus
DR15 -2.83 dB -26.08 dB 14:04 06-L'Abbe Agathon
DR14 -9.39 dB -30.02 dB 2:08 07-Estonian Lullaby
DR13 -9.87 dB -28.71 dB 2:27 08-Christmas Lullaby
––––––––––––––––––––––––––––––––––––––––

Number of tracks: 8
Official DR value: DR14

Samplerate: 44100 Hz
Channels: 2
Bits per sample: 16
Bitrate: 480 kbps
Codec: FLAC
================================================================================

Arvo Part - Adam's Lament (2012) {ECM 2225}
Arvo Part - Adam's Lament (2012) {ECM 2225}


Rip by GFox