Subcategories

Arvo Part - I Am the True Vine (1999) [Repost]

Posted By: tiburon
Arvo Part - I Am the True Vine (1999) [Repost]

Arvo Part - I Am the True Vine (1999)
EAC 1.0b1 | FLAC tracks level 8 | Cue+Log+M3U | Full Scans 300dpi | 368MB + 5% Recovery
Genre: Classical, Sacred Music
Arvo Part - I Am the True Vine (1999) [Repost]

Paul Hillier, best known for his recordings of early music, brings that sense of urgency and simple piety to the delicate religious music of Arvo Part. This is music which combines gentleness with real force, and the intelligent singing, and capacity to make moments of silence tell as much as grand effects, is entirely admirable.
Track List
01. Bogoróditse Djévo 1:15
02. I Am The True Vine 8:10
03. Ode IX, From Kanon Pokajanen 10:36
04. The Woman With the Alabaster Box 6:30
05. Tribute To Caesar 7:20
06. Berliner Messe - I. Kyrie 3:03
07. Berliner Messe - II. Gloria 3:22
08. Berliner Messe - III. Erster Alleluiavers 1:03
09. Berliner Messe - IV. Zweiter Alleluiavers 1:20
10. Berliner Messe - V. Veni Sancte Spiritus 4:02
11. Berliner Messe - VI. Credo 3:57
12. Berliner Messe - VII. Sanctus 3:51
13. Berliner Messe - VIII. Agnus dei 2:28

musicians
Theatre of Voices
The Pro Arte Singers
Paul Hillier - director

Produced by Stephen Johns


Exact Audio Copy V1.0 beta 1 from 15. November 2010

EAC extraction logfile from 22. September 2011, 0:47

Arvo Part / I Am the True Vine

Used drive : TSSTcorpCDDVDW SH-S203N Adapter: 0 ID: 2

Read mode : Secure
Utilize accurate stream : Yes
Defeat audio cache : Yes
Make use of C2 pointers : No

Read offset correction : 6
Overread into Lead-In and Lead-Out : No
Fill up missing offset samples with silence : Yes
Delete leading and trailing silent blocks : No
Null samples used in CRC calculations : Yes
Used interface : Installed external ASPI interface
Gap handling : Appended to previous track

Used output format : User Defined Encoder
Selected bitrate : 1024 kBit/s
Quality : High
Add ID3 tag : No
Command line compressor : C:\Program Files (x86)\Exact Audio Copy\flac.exe
Additional command line options : -8 -V -T "ARTIST=%a" -T "TITLE=%t" -T "ALBUM=%g" -T "DATE=%y" -T "TRACKNUMBER=%n" -T "TOTALTRACKS=%x" -T "GENRE=%m" -T "ALBUMARTIST=%v" -T "ALBUM ARTIST=%v" -T "COMMENT=EAC, FLAC -8" %s


TOC of the extracted CD

Track | Start | Length | Start sector | End sector
––––––––––––––––––––––––––––-
1 | 0:00.00 | 1:14.72 | 0 | 5621
2 | 1:14.72 | 8:15.73 | 5622 | 42819
3 | 9:30.70 | 10:40.07 | 42820 | 90826
4 | 20:11.02 | 6:35.40 | 90827 | 120491
5 | 26:46.42 | 7:24.65 | 120492 | 153856
6 | 34:11.32 | 3:07.65 | 153857 | 167946
7 | 37:19.22 | 3:25.50 | 167947 | 183371
8 | 40:44.72 | 1:02.43 | 183372 | 188064
9 | 41:47.40 | 1:22.17 | 188065 | 194231
10 | 43:09.57 | 4:05.25 | 194232 | 212631
11 | 47:15.07 | 4:00.30 | 212632 | 230661
12 | 51:15.37 | 3:55.60 | 230662 | 248346
13 | 55:11.22 | 2:28.33 | 248347 | 259479


Track 1

Filename D:\Music Rips\Arvo Part - I Am the True Vine (1999) [FLAC]\01 - Bogoroditse Djevo (1990).wav

Pre-gap length 0:00:02.00

Peak level 82.0 %
Extraction speed 3.0 X
Track quality 100.0 %
Test CRC DE815D0C
Copy CRC DE815D0C
Accurately ripped (confidence 5) [BEFAE4C8]
Copy OK

Track 2

Filename D:\Music Rips\Arvo Part - I Am the True Vine (1999) [FLAC]\02 - I Am the True Vine (1996).wav

Pre-gap length 0:00:04.20

Peak level 47.7 %
Extraction speed 4.9 X
Track quality 100.0 %
Test CRC BE909CE2
Copy CRC BE909CE2
Accurately ripped (confidence 5) [C9E88265]
Copy OK

Track 3

Filename D:\Music Rips\Arvo Part - I Am the True Vine (1999) [FLAC]\03 - Ode IX, from Kanon pokajanen (1989, 1997).wav

Pre-gap length 0:00:05.65

Peak level 94.0 %
Extraction speed 6.0 X
Track quality 100.0 %
Test CRC D26B1099
Copy CRC D26B1099
Accurately ripped (confidence 5) [A7998ADA]
Copy OK

Track 4

Filename D:\Music Rips\Arvo Part - I Am the True Vine (1999) [FLAC]\04 - The Woman With the Alabaster Box (1997).wav

Pre-gap length 0:00:04.35

Peak level 40.2 %
Extraction speed 6.6 X
Track quality 100.0 %
Test CRC 77A1574B
Copy CRC 77A1574B
Accurately ripped (confidence 5) [3F5D7A0E]
Copy OK

Track 5

Filename D:\Music Rips\Arvo Part - I Am the True Vine (1999) [FLAC]\05 - Tribute to Caesar (1997).wav

Pre-gap length 0:00:05.52

Peak level 98.8 %
Extraction speed 7.5 X
Track quality 100.0 %
Test CRC D24A938D
Copy CRC D24A938D
Accurately ripped (confidence 5) [CA4016C2]
Copy OK

Track 6

Filename D:\Music Rips\Arvo Part - I Am the True Vine (1999) [FLAC]\06 - Berliner Messe (1990, 1997) - I. Kyrie.wav

Pre-gap length 0:00:05.27

Peak level 27.5 %
Extraction speed 4.9 X
Track quality 100.0 %
Test CRC 4A3B6352
Copy CRC 4A3B6352
Accurately ripped (confidence 5) [6321BF55]
Copy OK

Track 7

Filename D:\Music Rips\Arvo Part - I Am the True Vine (1999) [FLAC]\07 - Berliner Messe - II. Gloria.wav

Pre-gap length 0:00:05.27

Peak level 43.4 %
Extraction speed 7.5 X
Track quality 100.0 %
Test CRC F8E84E17
Copy CRC F8E84E17
Accurately ripped (confidence 5) [773AD104]
Copy OK

Track 8

Filename D:\Music Rips\Arvo Part - I Am the True Vine (1999) [FLAC]\08 - Berliner Messe - III. Erster Alleluiavers.wav

Pre-gap length 0:00:04.02

Peak level 75.8 %
Extraction speed 5.5 X
Track quality 100.0 %
Test CRC 96DAD95C
Copy CRC 96DAD95C
Accurately ripped (confidence 5) [5EB47B43]
Copy OK

Track 9

Filename D:\Music Rips\Arvo Part - I Am the True Vine (1999) [FLAC]\09 - Berliner Messe - IV. Zweiter Alleluiavers.wav

Peak level 12.3 %
Extraction speed 6.2 X
Track quality 100.0 %
Test CRC BBAC8785
Copy CRC BBAC8785
Accurately ripped (confidence 5) [743C48C6]
Copy OK

Track 10

Filename D:\Music Rips\Arvo Part - I Am the True Vine (1999) [FLAC]\10 - Berliner Messe - V. Veni Sancte Spiritus.wav

Pre-gap length 0:00:02.20

Peak level 36.6 %
Extraction speed 8.0 X
Track quality 100.0 %
Test CRC 875860E4
Copy CRC 875860E4
Accurately ripped (confidence 5) [0A9A4A00]
Copy OK

Track 11

Filename D:\Music Rips\Arvo Part - I Am the True Vine (1999) [FLAC]\11 - Berliner Messe - VI. Credo.wav

Pre-gap length 0:00:03.60

Peak level 63.1 %
Extraction speed 6.6 X
Track quality 99.9 %
Test CRC CA786873
Copy CRC CA786873
Accurately ripped (confidence 5) [CD81CD0A]
Copy OK

Track 12

Filename D:\Music Rips\Arvo Part - I Am the True Vine (1999) [FLAC]\12 - Berliner Messe - VII. Sanctus.wav

Pre-gap length 0:00:03.52

Peak level 15.5 %
Extraction speed 8.3 X
Track quality 100.0 %
Test CRC 255FB8CD
Copy CRC 255FB8CD
Accurately ripped (confidence 5) [72CE1D5B]
Copy OK

Track 13

Filename D:\Music Rips\Arvo Part - I Am the True Vine (1999) [FLAC]\13 - Berliner Messe - VIII. Agnus dei.wav

Pre-gap length 0:00:04.32

Peak level 41.2 %
Extraction speed 5.7 X
Track quality 99.9 %
Test CRC B098A370
Copy CRC B098A370
Accurately ripped (confidence 5) [1AE1B967]
Copy OK


All tracks accurately ripped

No errors occurred

End of status report

==== Log checksum F08DDDAAA1F2478B35BACE937C81162A322B56BC1839FAA31224459176AD892E ====


––––––––––––––––––––––––––––––––––––––––
Analyzed: Arvo Part / I Am the True Vine
––––––––––––––––––––––––––––––––––––––––

DR Peak RMS Duration Track
––––––––––––––––––––––––––––––––––––––––
DR12 -1.72 dB -21.28 dB 1:15 01-Bogoroditse Djevo (1990)
DR16 -6.42 dB -27.80 dB 8:16 02-I Am the True Vine (1996)
DR16 -0.53 dB -25.93 dB 10:40 03-Ode IX, from Kanon pokajanen (1989, 1997)
DR15 -7.91 dB -30.25 dB 6:36 04-The Woman With the Alabaster Box (1997)
DR15 -0.10 dB -24.10 dB 7:25 05-Tribute to Caesar (1997)
DR12 -11.19 dB -31.62 dB 3:08 06-Berliner Messe (1990, 1997) - I. Kyrie
DR14 -7.24 dB -25.78 dB 3:26 07-Berliner Messe - II. Gloria
DR12 -2.40 dB -22.97 dB 1:03 08-Berliner Messe - III. Erster Alleluiavers
DR10 -18.16 dB -33.64 dB 1:22 09-Berliner Messe - IV. Zweiter Alleluiavers
DR14 -8.71 dB -27.99 dB 4:05 10-Berliner Messe - V. Veni Sancte Spiritus
DR13 -3.99 dB -22.60 dB 4:00 11-Berliner Messe - VI. Credo
DR11 -16.15 dB -31.95 dB 3:56 12-Berliner Messe - VII. Sanctus
DR13 -7.69 dB -28.93 dB 2:28 13-Berliner Messe - VIII. Agnus dei
––––––––––––––––––––––––––––––––––––––––

Number of tracks: 13
Official DR value: DR13

Samplerate: 44100 Hz
Channels: 2
Bits per sample: 16
Bitrate: 423 kbps
Codec: FLAC
================================================================================

Arvo Part - I Am the True Vine (1999) [Repost]
Arvo Part - I Am the True Vine (1999) [Repost]
Arvo Part - I Am the True Vine (1999) [Repost]


Rip by Gadfly