Subcategories

Asenblut - Legenden (2018) [EP]

Posted By: Andi_Deris
Asenblut - Legenden (2018) [EP]

Asenblut - Legenden (2018) [EP]
EAC Rip | FLAC: Image+Cue+Log | MP3 CBR 320 kbps | Scans
182 Mb | 52 Mb | 21 Mb | Time: 22:33
AFM Records | AFM 675-2
Black/Thrash/Pagan Metal

In 2018, Asenblut is still an epic, furious, victorious and elegiac force to be reckoned with, a self-confident force about to let the regalia of German Pagan Metal bloom anew. Four songs from the band's early days, re-recorded and refined in the most perfect way, again by Mr. Sebastian "Seeb" Levermann (Orden Ogan) in his Greenman Studios. As a very special treat, Legenden also includes a cover version of Manowar's "God Or Man."

Asenblut - Legenden (2018) [EP]




Track Listing

01. Die Legende (2018) (03:55)
02. Heldenbürde (2018) (05:03)
03. Asenblut (2018) (04:14)
04. God Or Man (Manowar cover) (04:23)
05. Von Des Verräters Untergang (2018) (04:58)

Produced by Dirk "Claus Cleinkrieg" Grove
Co-Produced by Sebastian "Seeb" Levermann

The Band

• Tetzel - Vocals
• Claus Cleinkrieg - Guitars
• Yuri - Guitars
• Sash - Bass
• Balrogh - Drums

Exact Audio Copy V1.3 from 2. September 2016

EAC extraction logfile from 16. April 2018, 16:30

Asenblut / Legenden

Used drive : ATAPI iHAS122 W Adapter: 2 ID: 0

Read mode : Secure
Utilize accurate stream : Yes
Defeat audio cache : Yes
Make use of C2 pointers : No

Read offset correction : 48
Overread into Lead-In and Lead-Out : No
Fill up missing offset samples with silence : Yes
Delete leading and trailing silent blocks : No
Null samples used in CRC calculations : Yes
Used interface : Installed external ASPI interface

Used output format : User Defined Encoder
Selected bitrate : 1024 kBit/s
Quality : High
Add ID3 tag : No
Command line compressor : C:\Program Files\FLAC\flac.exe
Additional command line options : -V -8 -T "Date=%year%" -T "Genre=%genre%" -T"COMMENT=Ripped by Ilijan" -8 -V %source%


TOC of the extracted CD

Track | Start | Length | Start sector | End sector
––––––––––––––––––––––––––––-
1 | 0:00.00 | 3:55.23 | 0 | 17647
2 | 3:55.23 | 5:03.25 | 17648 | 40397
3 | 8:58.48 | 4:13.60 | 40398 | 59432
4 | 13:12.33 | 4:22.41 | 59433 | 79123
5 | 17:34.74 | 4:57.46 | 79124 | 101444


Range status and errors

Selected range

Filename D:\Asenblut - Legenden.wav

Peak level 99.9 %
Extraction speed 3.0 X
Range quality 99.9 %
Test CRC A86206D6
Copy CRC A86206D6
Copy OK

No errors occurred


AccurateRip summary

Track 1 not present in database
Track 2 not present in database
Track 3 not present in database
Track 4 not present in database
Track 5 not present in database

None of the tracks are present in the AccurateRip database

End of status report

–– CUETools DB Plugin V2.1.6

[CTDB TOCID: 9961RsU7myNPRYqXoS04a.DKOEk-] found
Submit result: 9961RsU7myNPRYqXoS04a.DKOEk- has been confirmed
Track | CTDB Status
1 | (4/4) Accurately ripped
2 | (4/4) Accurately ripped
3 | (4/4) Accurately ripped
4 | (4/4) Accurately ripped
5 | (4/4) Accurately ripped


==== Log checksum 6F07AC84152813E32E61E5C3765250D00751E7C17FF2275E6B9C26C8EE1D62C8 ====


Many thanks to the original uploader: Ilijan



Password: pass