Subcategories

Ashley Alexander Big Band - Seems Like Old Times (1987)

Posted By: PCWhizzkid
Ashley Alexander Big Band - Seems Like Old Times (1987)

Ashley Alexander Big Band - Seems Like Old Times (1987)
EAC | FLAC+CUE+LOG - 193 MB | SCANS - 14 MB (600dpi)
Genre: Jazz / Big Band | Label: Chase Music Group | Catalogue No: CMD 8005

Consistent, workmanlike big band arrangements and solos were on display throughout the eight cuts featured on Seems Like Old Times, a 1987 CD spotlighting the Ashley Alexander Big Band. This was Alexander's fourth big band release, and it didn't differ from the others. The songs included versions of Charlie Shavers, Jule Styne, and Antonio Carlos Jobim classics, plus three supplied by keyboardist Frank Mantooth, who doubled as the band's principal arranger.

Personel:
Saxes:
Larry Panella (Tenor) & Clarinet
Bill Sears (Alto)(Soprano) & Flute
Mark Henderson (Tenor) & Flute
Bob Sheppard (Alto) (Soprano) & Flute
Scott Robinson (Baritone) & Clarinet
Trumpets:
John Thomas
Tom Gause
James Linahon & Flugelhorn
Trombones:
Ashley Alexander & Leader
Luis Bonilla
Bill Yeager
Leland Gause
Rhythm:
Frank Mantooth ( Piano)(Synthesizer)
Danny Embrey (Guitar)
Bob Bowman (Bass)
Steve Houghton


TRACK LIST:

1. Undecided 4:00
2. Young and Foolish 5:46
3. Wave 6:30
4. Just in Time 3:28
5. Seems Like Old Times 3:08
6. Samba del Crow 3:53
7. Stapes 5:30
8. Scam and Eggs 7:04


Exact Audio Copy V1.0 beta 1 from 15. November 2010

EAC extraction logfile from 24. March 2011, 11:05

Ashley Alexander Big Band / Seems Like Old Times

Used drive : HL-DT-STDVDRAM GH22NS40 Adapter: 5 ID: 0

Read mode : Secure
Utilize accurate stream : Yes
Defeat audio cache : Yes
Make use of C2 pointers : No

Read offset correction : 667
Overread into Lead-In and Lead-Out : No
Fill up missing offset samples with silence : Yes
Delete leading and trailing silent blocks : No
Null samples used in CRC calculations : Yes
Used interface : Native Win32 interface for Win NT & 2000

Used output format : User Defined Encoder
Selected bitrate : 768 kBit/s
Quality : High
Add ID3 tag : No
Command line compressor : C:\Program Files (x86)\Exact Audio Copy\FLAC\FLAC.EXE
Additional command line options : -6 -V -T "ARTIST=%a" -T "TITLE=%t" -T "ALBUM=%g" -T "DATE=%y" -T "TRACKNUMBER=%n" -T "GENRE=%m" -T "COMMENT=%e" %j–picture="%i"%j %s -o %d


TOC of the extracted CD

Track | Start | Length | Start sector | End sector
––––––––––––––––––––––––––––-
1 | 0:00.00 | 4:12.67 | 0 | 18966
2 | 4:12.67 | 5:54.02 | 18967 | 45518
3 | 10:06.69 | 6:33.10 | 45519 | 75003
4 | 16:40.04 | 3:32.71 | 75004 | 90974
5 | 20:13.00 | 3:14.59 | 90975 | 105583
6 | 23:27.59 | 3:58.50 | 105584 | 123483
7 | 27:26.34 | 5:31.70 | 123484 | 148378
8 | 32:58.29 | 7:04.68 | 148379 | 180246


Range status and errors

Selected range

Filename T:\Ashley Alexander Big Band - Seems Like Old Times.wav

Peak level 81.9 %
Extraction speed 0.1 X
Range quality 100.0 %
Test CRC CFD2FE1C
Copy CRC CFD2FE1C
Copy OK

No errors occurred


AccurateRip summary

Track 1 not present in database
Track 2 not present in database
Track 3 not present in database
Track 4 not present in database
Track 5 not present in database
Track 6 not present in database
Track 7 not present in database
Track 8 not present in database

None of the tracks are present in the AccurateRip database

End of status report

==== Log checksum 96A0ED4969DBF23E42D26B1015E191520E165F7502A97BEB325107758EFDAC52 ====