Subcategories

Asia - Live Mockba 09-X1-90 [Essential Records ESSCD 174] {1991}

Posted By: luckburz
Asia - Live Mockba 09-X1-90 [Essential Records ESSCD 174] {1991}

Asia - Live Москва 09-X1-90
EAC+LOG+CUE | FLAC: 466 MB | Full Artwork | 5% Recovery Info
Label/Cat#: Essential Records # ESSCD 174 | Country/Year: UK 1991
Genre: Rock | Style: Arena Rock

MD5 [X] CUE [X] LOG [X] INFO TEXT [X] ARTWORK [X]

selfrip [X] not my rip []

Asia - Live Mockba 09-X1-90 [Essential Records ESSCD 174] {1991}



Exact Audio Copy V1.0 beta 3 from 29. August 2011

EAC extraction logfile from 20. July 2012, 17:00

Asia / Live Mockba 09-X1-90

Used drive : PIONEER BD-RW BDR-206 Adapter: 2 ID: 3

Read mode : Secure
Utilize accurate stream : Yes
Defeat audio cache : Yes
Make use of C2 pointers : No

Read offset correction : 667
Overread into Lead-In and Lead-Out : No
Fill up missing offset samples with silence : Yes
Delete leading and trailing silent blocks : No
Null samples used in CRC calculations : Yes
Used interface : Native Win32 interface for Win NT & 2000

Used output format : User Defined Encoder
Selected bitrate : 896 kBit/s
Quality : High
Add ID3 tag : No
Command line compressor : C:\Program Files\FLAC\flac.exe
Additional command line options : -5 -T "Artist=%artist%" -T "Title=%title%" -T "Album=%albumtitle%" -T "Date=%year%" -T "Tracknumber=%tracknr%" -T "Genre=%genre%" %source% -o %dest%


TOC of the extracted CD

Track | Start | Length | Start sector | End sector
––––––––––––––––––––––––––––-
1 | 0:00.33 | 5:36.62 | 33 | 25294
2 | 5:37.20 | 6:25.03 | 25295 | 54172
3 | 12:02.23 | 5:06.05 | 54173 | 77127
4 | 17:08.28 | 5:27.57 | 77128 | 101709
5 | 22:36.10 | 4:58.45 | 101710 | 124104
6 | 27:34.55 | 5:51.45 | 124105 | 150474
7 | 33:26.25 | 3:45.10 | 150475 | 167359
8 | 37:11.35 | 2:48.65 | 167360 | 180024
9 | 40:00.25 | 4:59.25 | 180025 | 202474
10 | 44:59.50 | 7:23.68 | 202475 | 235767
11 | 52:23.43 | 4:49.30 | 235768 | 257472
12 | 57:12.73 | 5:19.12 | 257473 | 281409
13 | 62:32.10 | 7:32.55 | 281410 | 315364
14 | 70:04.65 | 5:18.48 | 315365 | 339262


Range status and errors

Selected range

Filename I:\=== VINYL RIPS ===\=== EAC===\X FRESH RIP\Asia - Live Mockba 09-X1-90.wav

Peak level 87.3 %
Extraction speed 1.4 X
Range quality 99.9 %
Test CRC 764863D6
Copy CRC 764863D6
Copy OK

No errors occurred


AccurateRip summary

Track 1 accurately ripped (confidence 2) [0753B481] (AR v2)
Track 2 accurately ripped (confidence 2) [C948F767] (AR v2)
Track 3 accurately ripped (confidence 2) [192750C0] (AR v2)
Track 4 accurately ripped (confidence 2) [0DA47EDD] (AR v2)
Track 5 accurately ripped (confidence 2) [40D578DB] (AR v2)
Track 6 accurately ripped (confidence 2) [AA821B0A] (AR v2)
Track 7 accurately ripped (confidence 2) [72A05D66] (AR v2)
Track 8 accurately ripped (confidence 2) [826FA466] (AR v2)
Track 9 accurately ripped (confidence 2) [564E52F1] (AR v2)
Track 10 accurately ripped (confidence 2) [CB1B8437] (AR v2)
Track 11 accurately ripped (confidence 2) [AC65E1D6] (AR v2)
Track 12 accurately ripped (confidence 2) [CCBD2BBB] (AR v2)
Track 13 accurately ripped (confidence 2) [F3FDF19F] (AR v2)
Track 14 accurately ripped (confidence 2) [F37F7ADC] (AR v2)

All tracks accurately ripped

End of status report

–– CUETools DB Plugin V2.1.3

[CTDB TOCID: S3eaJ.d0d24NckQvffzc.YXenuU-] disk not present in database, Submit result: discs with pregaps not supported in this protocol version


==== Log checksum 955F4009A1A5DD24E75DC9361CABD15706F2EE7A8492271E166FFD43B331031B ====

foobar2000 1.1.7 / Dynamic Range Meter 1.1.1
log date: 2012-08-17 12:28:21

––––––––––––––––––––––––––––––––––––––––
Analyzed: Asia / Live Mockba 09-X1-90
––––––––––––––––––––––––––––––––––––––––

DR Peak RMS Duration Track
––––––––––––––––––––––––––––––––––––––––
DR12 -1.84 dB -16.36 dB 5:37 01-Time Again
DR12 -1.50 dB -16.27 dB 6:25 02-Sole Survivor
DR12 -1.50 dB -15.01 dB 5:06 03-Don't Cry
DR13 -1.50 dB -18.01 dB 5:28 04-Geoff Downes-Keyboards
DR13 -1.50 dB -16.18 dB 4:59 05-Only Time Will Tell
DR12 -1.50 dB -17.06 dB 5:52 06-Rock And Roll Dream
DR12 -2.50 dB -19.08 dB 3:45 07-Starless
DR13 -4.49 dB -20.89 dB 2:49 08-Book Of Saturday
DR12 -1.65 dB -17.21 dB 4:59 09-The Smile Has Left Your Eyes (Parts I&II)
DR12 -1.65 dB -17.42 dB 7:24 10-The Heat Goes On
DR12 -1.50 dB -16.15 dB 4:49 11-Go
DR12 -1.50 dB -15.54 dB 5:19 12-Heat Of The Moment
DR13 -1.50 dB -16.38 dB 7:33 13-Open Your Eyes
DR13 -1.17 dB -16.28 dB 5:19 14-Kari-Anne (Previously Unreleased)
––––––––––––––––––––––––––––––––––––––––

Number of tracks: 14
Official DR value: DR12

Samplerate: 44100 Hz
Channels: 2
Bits per sample: 16
Bitrate: 865 kbps
Codec: FLAC
================================================================================



CD Info:

Asia - Live In Moscow

Label: Essential Records
Catalog#: ESSCD 174
Format: CD, Album
Country: UK
Released: 1991
Genre: Rock
Style: Arena Rock

Tracklist:

1 Time Again
2 Sole Survivor
3 Don't Cry
4 Geoff Downes - Keyboards
5 Only Time Will Tell
6 Rock And Roll Dream
7 Starless
8 Book Of Saturday
9 The Smile Has Left Your Eyes (Parts I & II)
10 The Heat Goes On
11 Go
12 Heat Of The Moment
13 Open Your Eyes
14 Kari-Anne

Notes:

Track 4 includes "Video Killed The Radio Star"
Track 14 - Previously Unreleased

Recorded live at Olympijski Stadium, Moscow, USSR - 9 November 1990

Asia - Live Mockba 09-X1-90 [Essential Records ESSCD 174] {1991}


Discogs: http://www.discogs.com/Asia-Live-In-Moscow/release/3845635

Die Live-Veröffentlichungen von Asia sind ja inzwischen Legion, wahrscheinlich wird von jedem Konzert, mindestens aber jeder Tour, ein Mitschnitt veröffentlicht. Wirklich gute Aufnahmen sind aber schon selten zu finden, zumal es wenige Live-Dokumente aus der "klassischen" Zeit (also während der ersten drei Alben) gibt. Ein sehr empfehlenswertes Live-Album ist das Vorliegende, welches anlässlich zweier Konzerte im bereits winterlichen Moskau im November 1990 aufgenommen wurde. Die Konzerte fanden im Olympiastadion statt, wurden also quasi "open air" aufgenommen… das war bestimmt eine frostige Angelegenheit, trotzdem war mit jeweils 20.000 Zuschauern volles Haus angesagt. Hier finden sich immerhin 3/4 der "klassischen" Asia-Besetzung wieder, nur Steve Howe war schon lange seiner Wege gezogen. Gastgitarrist Pat Thrall (mir bisher nur von der Pat Travers Band (eher Blues-Rock) sowie der Meat Loaf-Tour-Band bekannt) macht seine Sache richtig gut.

Was wird geboten: Es gibt eine Auswahl verschiedener Songs der ersten drei Asia-Alben, die live alle sehr gut funktionieren. Hits wie "Sole Survivor" und "Heat Of The Moment" dürfen natürlich nicht fehlen. Die Band spielt sehr tight und mit gehöriger Spielfreude. Daneben geben sich noch Geoff Downes mit einem Keyboard-Solo (mit Dröhnungen alà Rick Wakeman und einer charmanten "Video Killed The Radio Star"-Einlage) sowie Carl Palmer mit einem energetischen Drumsolo (im Rahmen von "The Heat Goes On") die Ehre. John Wetton ist ausgesprochen gut bei Stimme und gibt als besondere Schmankerl die King Crimson-Klassiker "Starless" und "Book Of Saturday" in quasi "AORisierten", aber schönen Versionen zum besten.

Als Zugabe (eine Studioeinspielung, die allerdings geschickt an die Live-Aufnahme angehängt ist) gibt es dann noch einen meines Wissens nur hier veröffentlichen Titel namens "Kari-Anne", der gar nicht mal schlecht ist. Wenn Asia in dieser Besetzung weitergemacht hätten, dann wäre vielleicht mancher folgender Tiefschlag erträglicher ausgefallen.

Fazit: Ein tolles Live-Dokument der "klassischen" Asia-Ära. Es sei allen, die mit dieser Musik gelegentlich etwas anfangen können, ans Herz gelegt. babyblaue-seiten
Asia - Live Mockba 09-X1-90 [Essential Records ESSCD 174] {1991}

// classical music \\
// all of my uploads \\
________________

Download:

FLAC
Artwork
________________