Subcategories

VA - Atlanta Blues: Big City Blues From The Heartland (2005) [4CD Box Set] Repost

Posted By: v3122
VA - Atlanta Blues: Big City Blues From The Heartland (2005) [4CD Box Set] Repost

VA - Atlanta Blues: Big City Blues From The Heartland (2005)
EAC | Flac(Image) + Cue + Log & MP3 CBR 320Kbps
JSP Records, JSP7754 | ~ 501 or 756 Mb | Scans(jpg) -> 9.54 Mb
East Coast Blues

JSP's Atlanta Blues compiles four CDs of performances by Julius Daniels, Curley Weaver, Georgia Browns, Peg Leg Howell, Henry Williams & Eddie Anthony, Macon Ed & Tampa Joe, Lil McClintock, and Lillie Mae. It's hard to go wrong with these 101 recordings cut between 1926 and 1949. The tracks have been remastered, making the majority of this material sound great. Unlike other packages of this type, the liner notes are informative, listing personnel and dates and providing a concise history without going on ad nauseam. As an extra bonus this is a budget-priced set, making it highly recommended, especially for the blues novice.

by Al Campbell, allmusic
VA - Atlanta Blues: Big City Blues From The Heartland (2005):

VA - Atlanta Blues: Big City Blues From The Heartland (2005) [4CD Box Set] Repost

Tracklist CD1:

01. Julius Daniels - My Mamma Was a Sailor (3:27)
02. Julius Daniels - Ninety-Nine Year Blues (take 1) (3:05)
03. Julius Daniels - Ninety-Nine Year Blues (take 2) (3:13)
04. Julius Daniels - I'm Goin' to Tell God How You Doin' (3:11)
05. Julius Daniels - Slippin' & Slidin' Up the Golden Street (take 2) (3:14)
06. Julius Daniels - Slippin' & Slidin' Up the Golden Street (take 3) (3:21)
07. Julius Daniels - Can't Put the Bridle on the Mule, This Morning (take 1) (3:35)
08. Julius Daniels - Can't Put the Bridle on the Mule, This Morning (take 2) (3:03)
09. Julius Daniels - Richmond Blues (3:33)
10. Julius Daniels - Richmond Blues (take 2) (3:10)
11. Julius Daniels - Crow Jane Blues (3:37)
12. Curley Weaver - Sweet Petunia (3:19)
13. Curley Weaver - No No Blues (3:10)
14. Curley Weaver - No No Blues (& Eddie Mapp) (2:45)
15. Curley Weaver - Dirty Deal Blues (3:11)
16. Curley Weaver - It's the Best Stuff, Yet (2:47)
17. Curley Weaver - Ta Ta Blues (3:04)
18. Curley Weaver - Baby Boogie Woogie (3:08)
19. Curley Weaver - Wild Cat Kitten (3:15)
20. Curley Weaver - No No Blues (take 1) (3:09)
21. Curley Weaver - No No Blues (take 2) (3:10)
22. Curley Weaver - Early Morning Blues (3:07)
23. Curley Weaver - Leg Iron Blues (3:16)
24. Curley Weaver - Some Cold, Rainy Day (2:41)
25. Curley Weaver - Tippin' Tom (2:59)

Converted to Image (CUETools 2.1.4)

Exact Audio Copy V0.99 prebeta 4 from 23. January 2008

EAC extraction logfile from 22. November 2008, 7:46

Various Artists / Atlanta Blues - CD 1

Used drive : MATSHITADVD-RAM LF-P567 Adapter: 3 ID: 0

Read mode : Secure
Utilize accurate stream : Yes
Defeat audio cache : Yes
Make use of C2 pointers : No

Read offset correction : 102
Overread into Lead-In and Lead-Out : No
Fill up missing offset samples with silence : Yes
Delete leading and trailing silent blocks : No
Null samples used in CRC calculations : Yes
Used interface : Native Win32 interface for Win NT & 2000
Gap handling : Appended to previous track

Used output format : User Defined Encoder
Selected bitrate : 192 kBit/s
Quality : High
Add ID3 tag : Yes
Command line compressor : C:\Program Files\Exact Audio Copy\FLAC\flac.exe
Additional command line options : -8 -A tukey(0.25) -A gauss(0.1875) -b 4096 -V -T "artist=%a" -T "title=%t" -T "album=%g" -T "date=%y" -T "tracknumber=%n" -T "genre=%m" %s –sector-align


TOC of the extracted CD

Track | Start | Length | Start sector | End sector
––––––––––––––––––––––––––––-
1 | 0:00.00 | 3:27.37 | 0 | 15561
2 | 3:27.37 | 3:05.11 | 15562 | 29447
3 | 6:32.48 | 3:12.55 | 29448 | 43902
4 | 9:45.28 | 3:10.58 | 43903 | 58210
5 | 12:56.11 | 3:13.40 | 58211 | 72725
6 | 16:09.51 | 3:21.32 | 72726 | 87832
7 | 19:31.08 | 3:34.44 | 87833 | 103926
8 | 23:05.52 | 3:02.64 | 103927 | 117640
9 | 26:08.41 | 3:32.48 | 117641 | 133588
10 | 29:41.14 | 3:10.25 | 133589 | 147863
11 | 32:51.39 | 3:37.03 | 147864 | 164141
12 | 36:28.42 | 3:19.22 | 164142 | 179088
13 | 39:47.64 | 3:09.41 | 179089 | 193304
14 | 42:57.30 | 2:44.72 | 193305 | 205676
15 | 45:42.27 | 3:11.18 | 205677 | 220019
16 | 48:53.45 | 2:46.45 | 220020 | 232514
17 | 51:40.15 | 3:04.33 | 232515 | 246347
18 | 54:44.48 | 3:08.08 | 246348 | 260455
19 | 57:52.56 | 3:14.49 | 260456 | 275054
20 | 61:07.30 | 3:09.08 | 275055 | 289237
21 | 64:16.38 | 3:09.63 | 289238 | 303475
22 | 67:26.26 | 3:06.64 | 303476 | 317489
23 | 70:33.15 | 3:15.66 | 317490 | 332180
24 | 73:49.06 | 2:41.26 | 332181 | 344281
25 | 76:30.32 | 2:58.50 | 344282 | 357681


Track 1

Filename j:\flac\Various\Atlanta Blues - CD 1\01 - My Mamma Was a Sailor [Julius Daniels].wav

Pre-gap length 0:00:02.00

Peak level 94.3 %
Track quality 100.0 %
Test CRC E96E716E
Copy CRC E96E716E
Copy OK

Track 2

Filename j:\flac\Various\Atlanta Blues - CD 1\02 - Ninety-Nine Year Blues (take 1) [Julius Daniels].wav

Pre-gap length 0:00:02.41

Peak level 94.2 %
Track quality 100.0 %
Test CRC EE179D42
Copy CRC EE179D42
Copy OK

Track 3

Filename j:\flac\Various\Atlanta Blues - CD 1\03 - Ninety-Nine Year Blues (take 2) [Julius Daniels].wav

Pre-gap length 0:00:02.41

Peak level 92.7 %
Track quality 100.0 %
Test CRC BBFF6F3A
Copy CRC BBFF6F3A
Copy OK

Track 4

Filename j:\flac\Various\Atlanta Blues - CD 1\04 - I'm Goin' to Tell God How You Doin' [Julius Daniels].wav

Pre-gap length 0:00:02.41

Peak level 74.9 %
Track quality 100.0 %
Test CRC D362A3E7
Copy CRC D362A3E7
Copy OK

Track 5

Filename j:\flac\Various\Atlanta Blues - CD 1\05 - Slippin' & Slidin' Up the Golden Street (take 2) [Julius Daniels].wav

Pre-gap length 0:00:02.41

Peak level 85.3 %
Track quality 100.0 %
Test CRC 2EFB019A
Copy CRC 2EFB019A
Copy OK

Track 6

Filename j:\flac\Various\Atlanta Blues - CD 1\06 - Slippin' & Slidin' Up the Golden Street (take 3) [Julius Daniels].wav

Pre-gap length 0:00:02.41

Peak level 94.2 %
Track quality 100.0 %
Test CRC 68D9C383
Copy CRC 68D9C383
Copy OK

Track 7

Filename j:\flac\Various\Atlanta Blues - CD 1\07 - Can't Put the Bridle on the Mule, This Morning (take 1) [Julius Daniels].wav

Pre-gap length 0:00:02.41

Peak level 94.3 %
Track quality 100.0 %
Test CRC E1DF0E68
Copy CRC E1DF0E68
Copy OK

Track 8

Filename j:\flac\Various\Atlanta Blues - CD 1\08 - Can't Put the Bridle on the Mule, This Morning (take 2) [Julius Daniels].wav

Pre-gap length 0:00:02.41

Peak level 84.0 %
Track quality 100.0 %
Test CRC A51D9FED
Copy CRC A51D9FED
Copy OK

Track 9

Filename j:\flac\Various\Atlanta Blues - CD 1\09 - Richmond Blues [Julius Daniels].wav

Pre-gap length 0:00:02.41

Peak level 94.3 %
Track quality 100.0 %
Test CRC C327561F
Copy CRC C327561F
Copy OK

Track 10

Filename j:\flac\Various\Atlanta Blues - CD 1\10 - Richmond Blues (take 2) [Julius Daniels].wav

Pre-gap length 0:00:02.41

Peak level 69.0 %
Track quality 100.0 %
Test CRC D1168B96
Copy CRC D1168B96
Copy OK

Track 11

Filename j:\flac\Various\Atlanta Blues - CD 1\11 - Crow Jane Blues [Julius Daniels].wav

Pre-gap length 0:00:02.41

Peak level 94.3 %
Track quality 100.0 %
Test CRC D87CDD24
Copy CRC D87CDD24
Copy OK

Track 12

Filename j:\flac\Various\Atlanta Blues - CD 1\12 - Sweet Petunia [Curley Weaver].wav

Pre-gap length 0:00:02.41

Peak level 94.3 %
Track quality 100.0 %
Test CRC 4F07EBBF
Copy CRC 4F07EBBF
Copy OK

Track 13

Filename j:\flac\Various\Atlanta Blues - CD 1\13 - No No Blues [Curley Weaver].wav

Pre-gap length 0:00:02.41

Peak level 94.2 %
Track quality 100.0 %
Test CRC DA31F871
Copy CRC DA31F871
Copy OK

Track 14

Filename j:\flac\Various\Atlanta Blues - CD 1\14 - No No Blues (& Eddie Mapp) [Curley Weaver].wav

Pre-gap length 0:00:02.41

Peak level 71.4 %
Track quality 100.0 %
Test CRC C6AB6C8C
Copy CRC C6AB6C8C
Copy OK

Track 15

Filename j:\flac\Various\Atlanta Blues - CD 1\15 - Dirty Deal Blues [Curley Weaver].wav

Pre-gap length 0:00:02.41

Peak level 75.0 %
Track quality 99.9 %
Test CRC 1A8E6945
Copy CRC 1A8E6945
Copy OK

Track 16

Filename j:\flac\Various\Atlanta Blues - CD 1\16 - It's the Best Stuff, Yet [Curley Weaver].wav

Pre-gap length 0:00:02.41

Peak level 72.1 %
Track quality 100.0 %
Test CRC 610857DF
Copy CRC 610857DF
Copy OK

Track 17

Filename j:\flac\Various\Atlanta Blues - CD 1\17 - Ta Ta Blues [Curley Weaver].wav

Pre-gap length 0:00:02.41

Peak level 72.1 %
Track quality 100.0 %
Test CRC 467C219C
Copy CRC 467C219C
Copy OK

Track 18

Filename j:\flac\Various\Atlanta Blues - CD 1\18 - Baby Boogie Woogie [Curley Weaver].wav

Pre-gap length 0:00:02.41

Peak level 89.9 %
Track quality 100.0 %
Test CRC 6C212488
Copy CRC 6C212488
Copy OK

Track 19

Filename j:\flac\Various\Atlanta Blues - CD 1\19 - Wild Cat Kitten [Curley Weaver].wav

Pre-gap length 0:00:02.41

Peak level 91.3 %
Track quality 100.0 %
Test CRC 635C2AB8
Copy CRC 635C2AB8
Copy OK

Track 20

Filename j:\flac\Various\Atlanta Blues - CD 1\20 - No No Blues (take 1) [Curley Weaver].wav

Pre-gap length 0:00:02.41

Peak level 92.9 %
Track quality 100.0 %
Test CRC DABD68AB
Copy CRC DABD68AB
Copy OK

Track 21

Filename j:\flac\Various\Atlanta Blues - CD 1\21 - No No Blues (take 2) [Curley Weaver].wav

Pre-gap length 0:00:02.41

Peak level 94.3 %
Track quality 100.0 %
Test CRC E838FBEE
Copy CRC E838FBEE
Copy OK

Track 22

Filename j:\flac\Various\Atlanta Blues - CD 1\22 - Early Morning Blues [Curley Weaver].wav

Pre-gap length 0:00:02.41

Peak level 84.0 %
Track quality 100.0 %
Test CRC 87CD95F9
Copy CRC 87CD95F9
Copy OK

Track 23

Filename j:\flac\Various\Atlanta Blues - CD 1\23 - Leg Iron Blues [Curley Weaver].wav

Pre-gap length 0:00:02.41

Peak level 84.0 %
Track quality 99.9 %
Test CRC 140480EF
Copy CRC 140480EF
Copy OK

Track 24

Filename j:\flac\Various\Atlanta Blues - CD 1\24 - Some Cold, Rainy Day [Curley Weaver].wav

Pre-gap length 0:00:02.41

Peak level 84.0 %
Track quality 99.9 %
Test CRC F5F1DBCA
Copy CRC F5F1DBCA
Copy OK

Track 25

Filename j:\flac\Various\Atlanta Blues - CD 1\25 - Tippin' Tom [Curley Weaver].wav

Pre-gap length 0:00:02.41

Peak level 94.3 %
Track quality 99.9 %
Test CRC 3FFC5FA8
Copy CRC 3FFC5FA8
Copy OK

No errors occurred

End of status report


[CUETools log; Date: 22.02.2018 15:56:08; Version: 2.1.5]
[AccurateRip ID: 0048330c-050efc3d-a212a119] found.
Track [ CRC | V2 ] Status
01 [99200cb6|52dfaf4c] (0+0/1) No match
02 [663d70cf|742b0b0c] (0+0/1) No match
03 [1553b484|a8b8b17b] (0+0/1) No match
04 [f2a5077f|890e3bf9] (0+0/1) No match
05 [d1f06d73|5b1c2465] (0+0/1) No match
06 [91665c2c|7b9c9652] (0+0/1) No match
07 [37376bb1|abc659a0] (0+0/1) No match
08 [b8af99f8|5227b1f1] (0+0/1) No match
09 [41a600bd|eaf6423e] (0+0/1) No match
10 [8b4c34f8|9a1d7416] (0+0/1) No match
11 [f8e0781c|01e0de2f] (0+0/1) No match
12 [c4df35d1|c6239fe1] (0+0/1) No match
13 [cabf67ca|bc80d640] (0+0/1) No match
14 [1ba30ab4|3f2bad4f] (0+0/1) No match
15 [d8511fb4|fac08bfe] (0+0/1) No match
16 [f3601a2b|71a5491d] (0+0/1) No match
17 [13328c9e|c9589fc5] (0+0/1) No match
18 [7fb8b276|7df31aa6] (0+0/1) No match
19 [24e29383|31c3917c] (0+0/1) No match
20 [91c52d07|8c27d4dd] (0+0/1) No match
21 [4c714d4d|ff2a0059] (0+0/1) No match
22 [b6f5f563|6f9b764b] (0+0/1) No match
23 [996d7d1b|55e450bb] (0+0/1) No match
24 [146fe435|01239df2] (0+0/1) No match
25 [75b51133|5de9f530] (0+0/1) No match
Offsetted by -18:
01 [40f489e2] (1/1) Accurately ripped
02 [31057a1f] (0/1) No match
03 [820d6324] (0/1) No match
04 [cc31b189] (0/1) No match
05 [9798beb5] (0/1) No match
06 [707ed2de] (0/1) No match
07 [d740d751] (0/1) No match
08 [7a4c81ca] (0/1) No match
09 [6ea6ff29] (0/1) No match
10 [1d14ca60] (0/1) No match
11 [eaf115e8] (0/1) No match
12 [fef3b9cf] (0/1) No match
13 [a14acfea] (0/1) No match
14 [5fc264b2] (0/1) No match
15 [ab3ace72] (0/1) No match
16 [d72ac7a3] (0/1) No match
17 [45cfb0ce] (0/1) No match
18 [13ea44a6] (0/1) No match
19 [b2fbe953] (0/1) No match
20 [612aed1d] (0/1) No match
21 [c1fda9ff] (0/1) No match
22 [dcacd789] (0/1) No match
23 [ac5a2919] (0/1) No match
24 [5a14c20d] (0/1) No match
25 [72caac1d] (0/1) No match
Offsetted by -7:
01 [93480480] (0/1) No match
02 [edfd02a7] (1/1) Accurately ripped
03 [3f9bea34] (0/1) No match
04 [71e9f44a] (0/1) No match
05 [d7b1e262] (0/1) No match
06 [12d36de3] (0/1) No match
07 [bc906ae1] (0/1) No match
08 [75c1f41f] (0/1) No match
09 [8c09f1e7] (0/1) No match
10 [606f8b84] (0/1) No match
11 [c8ca7c96] (0/1) No match
12 [77e73042] (0/1) No match
13 [c8d92cba] (0/1) No match
14 [d292ca25] (0/1) No match
15 [aa56aac5] (0/1) No match
16 [2f84412f] (0/1) No match
17 [26e17006] (0/1) No match
18 [2b214ede] (0/1) No match
19 [a341c31b] (0/1) No match
20 [37c2142c] (0/1) No match
21 [5db61c04] (0/1) No match
22 [9af5f800] (0/1) No match
23 [1290a38c] (0/1) No match
24 [cbf71e09] (0/1) No match
25 [9104948e] (0/1) No match
Offsetted by 4:
01 [e59b7f1e] (0/1) No match
02 [aaf48b2f] (0/1) No match
03 [fd2a7144] (1/1) Accurately ripped
04 [17a2370b] (0/1) No match
05 [17cb060f] (0/1) No match
06 [b52808e8] (0/1) No match
07 [a1dffe71] (0/1) No match
08 [71376674] (0/1) No match
09 [a96ce4a5] (0/1) No match
10 [a3ca4ca8] (0/1) No match
11 [a6a3e344] (0/1) No match
12 [f0daa6b5] (0/1) No match
13 [f067898a] (0/1) No match
14 [45632f98] (0/1) No match
15 [a9728718] (0/1) No match
16 [87ddbabb] (0/1) No match
17 [07f32f3e] (0/1) No match
18 [42585916] (0/1) No match
19 [93879ce3] (0/1) No match
20 [0e593b3b] (0/1) No match
21 [f96e8e09] (0/1) No match
22 [593f1877] (0/1) No match
23 [78c71dff] (0/1) No match
24 [3dd97a05] (0/1) No match
25 [af3e7cff] (0/1) No match
Offsetted by 15:
01 [37eef9bc] (0/1) No match
02 [67ec13b7] (0/1) No match
03 [bab8f854] (0/1) No match
04 [bd5a79cc] (1/1) Accurately ripped
05 [57e429bc] (0/1) No match
06 [577ca3ed] (0/1) No match
07 [872f9201] (0/1) No match
08 [6cacd8c9] (0/1) No match
09 [c6cfd763] (0/1) No match
10 [e7250dcc] (0/1) No match
11 [847d49f2] (0/1) No match
12 [69ce1d28] (0/1) No match
13 [17f5e65a] (0/1) No match
14 [b833950b] (0/1) No match
15 [a88e636b] (0/1) No match
16 [e0373447] (0/1) No match
17 [e904ee76] (0/1) No match
18 [598f634e] (0/1) No match
19 [83cd76ab] (0/1) No match
20 [e4f0624a] (0/1) No match
21 [9527000e] (0/1) No match
22 [178838ee] (0/1) No match
23 [defd9872] (0/1) No match
24 [afbbd601] (0/1) No match
25 [cd786570] (0/1) No match
Offsetted by 26:
01 [8a42745a] (0/1) No match
02 [24e39c3f] (0/1) No match
03 [78477f64] (0/1) No match
04 [6312bc8d] (0/1) No match
05 [97fd4d69] (1/1) Accurately ripped
06 [f9d13ef2] (0/1) No match
07 [6c7f2591] (0/1) No match
08 [68224b1e] (0/1) No match
09 [e432ca21] (0/1) No match
10 [2a7fcef0] (0/1) No match
11 [6256b0a0] (0/1) No match
12 [e2c1939b] (0/1) No match
13 [3f84432a] (0/1) No match
14 [2b03fa7e] (0/1) No match
15 [a7aa3fbe] (0/1) No match
16 [3890add3] (0/1) No match
17 [ca16adae] (0/1) No match
18 [70c66d86] (0/1) No match
19 [74135073] (0/1) No match
20 [bb878959] (0/1) No match
21 [30df7213] (0/1) No match
22 [d5d15965] (0/1) No match
23 [453412e5] (0/1) No match
24 [219e31fd] (0/1) No match
25 [ebb24de1] (0/1) No match
Offsetted by 37:
01 [dc95eef8] (0/1) No match
02 [e1db24c7] (0/1) No match
03 [35d60674] (0/1) No match
04 [08caff4e] (0/1) No match
05 [d8167116] (0/1) No match
06 [9c25d9f7] (1/1) Accurately ripped
07 [51ceb921] (0/1) No match
08 [6397bd73] (0/1) No match
09 [0195bcdf] (0/1) No match
10 [6dda9014] (0/1) No match
11 [4030174e] (0/1) No match
12 [5bb50a0e] (0/1) No match
13 [67129ffa] (0/1) No match
14 [9dd45ff1] (0/1) No match
15 [a6c61c11] (0/1) No match
16 [90ea275f] (0/1) No match
17 [ab286ce6] (0/1) No match
18 [87fd77be] (0/1) No match
19 [64592a3b] (0/1) No match
20 [921eb068] (0/1) No match
21 [cc97e418] (0/1) No match
22 [941a79dc] (0/1) No match
23 [ab6a8d58] (0/1) No match
24 [93808df9] (0/1) No match
25 [09ec3652] (0/1) No match
Offsetted by 48:
01 [2ee96996] (0/1) No match
02 [9ed2ad4f] (0/1) No match
03 [f3648d84] (0/1) No match
04 [ae83420f] (0/1) No match
05 [182f94c3] (0/1) No match
06 [3e7a74fc] (0/1) No match
07 [371e4cb1] (1/1) Accurately ripped
08 [5f0d2fc8] (0/1) No match
09 [1ef8af9d] (0/1) No match
10 [b1355138] (0/1) No match
11 [1e097dfc] (0/1) No match
12 [d4a88081] (0/1) No match
13 [8ea0fcca] (0/1) No match
14 [10a4c564] (0/1) No match
15 [a5e1f864] (0/1) No match
16 [e943a0eb] (0/1) No match
17 [8c3a2c1e] (0/1) No match
18 [9f3481f6] (0/1) No match
19 [549f0403] (0/1) No match
20 [68b5d777] (0/1) No match
21 [6850561d] (0/1) No match
22 [52639a53] (0/1) No match
23 [11a107cb] (0/1) No match
24 [0562e9f5] (0/1) No match
25 [28261ec3] (0/1) No match
Offsetted by 59:
01 [813ce434] (0/1) No match
02 [5bca35d7] (0/1) No match
03 [b0f31494] (0/1) No match
04 [543b84d0] (0/1) No match
05 [5848b870] (0/1) No match
06 [e0cf1001] (0/1) No match
07 [1c6de041] (0/1) No match
08 [5a82a21d] (1/1) Accurately ripped
09 [3c5ba25b] (0/1) No match
10 [f490125c] (0/1) No match
11 [fbe2e4aa] (0/1) No match
12 [4d9bf6f4] (0/1) No match
13 [b62f599a] (0/1) No match
14 [83752ad7] (0/1) No match
15 [a4fdd4b7] (0/1) No match
16 [419d1a77] (0/1) No match
17 [6d4beb56] (0/1) No match
18 [b66b8c2e] (0/1) No match
19 [44e4ddcb] (0/1) No match
20 [3f4cfe86] (0/1) No match
21 [0408c822] (0/1) No match
22 [10acbaca] (0/1) No match
23 [77d7823e] (0/1) No match
24 [774545f1] (0/1) No match
25 [46600734] (0/1) No match
Offsetted by 70:
01 [d3905ed2] (0/1) No match
02 [18c1be5f] (0/1) No match
03 [6e819ba4] (0/1) No match
04 [f9f3c791] (0/1) No match
05 [9861dc1d] (0/1) No match
06 [8323ab06] (0/1) No match
07 [01bd73d1] (0/1) No match
08 [55f81472] (0/1) No match
09 [59be9519] (1/1) Accurately ripped
10 [37ead380] (0/1) No match
11 [d9bc4b58] (0/1) No match
12 [c68f6d67] (0/1) No match
13 [ddbdb66a] (0/1) No match
14 [f645904a] (0/1) No match
15 [a419b10a] (0/1) No match
16 [99f69403] (0/1) No match
17 [4e5daa8e] (0/1) No match
18 [cda29666] (0/1) No match
19 [352ab793] (0/1) No match
20 [15e42595] (0/1) No match
21 [9fc13a27] (0/1) No match
22 [cef5db41] (0/1) No match
23 [de0dfcb1] (0/1) No match
24 [e927a1ed] (0/1) No match
25 [6499efa5] (0/1) No match
Offsetted by 81:
01 [25e3d970] (0/1) No match
02 [d5b946e7] (0/1) No match
03 [2c1022b4] (0/1) No match
04 [9fac0a52] (0/1) No match
05 [d87affca] (0/1) No match
06 [2578460b] (0/1) No match
07 [e70d0761] (0/1) No match
08 [516d86c7] (0/1) No match
09 [772187d7] (0/1) No match
10 [7b4594a4] (1/1) Accurately ripped
11 [b795b206] (0/1) No match
12 [3f82e3da] (0/1) No match
13 [054c133a] (0/1) No match
14 [6915f5bd] (0/1) No match
15 [a3358d5d] (0/1) No match
16 [f2500d8f] (0/1) No match
17 [2f6f69c6] (0/1) No match
18 [e4d9a09e] (0/1) No match
19 [2570915b] (0/1) No match
20 [ec7b4ca4] (0/1) No match
21 [3b79ac2c] (0/1) No match
22 [8d3efbb8] (0/1) No match
23 [44447724] (0/1) No match
24 [5b09fde9] (0/1) No match
25 [82d3d816] (0/1) No match
Offsetted by 92:
01 [7837540e] (0/1) No match
02 [92b0cf6f] (0/1) No match
03 [e99ea9c4] (0/1) No match
04 [45644d13] (0/1) No match
05 [18942377] (0/1) No match
06 [c7cce110] (0/1) No match
07 [cc5c9af1] (0/1) No match
08 [4ce2f91c] (0/1) No match
09 [94847a95] (0/1) No match
10 [bea055c8] (0/1) No match
11 [956f18b4] (1/1) Accurately ripped
12 [b8765a4d] (0/1) No match
13 [2cda700a] (0/1) No match
14 [dbe65b30] (0/1) No match
15 [a25169b0] (0/1) No match
16 [4aa9871b] (0/1) No match
17 [108128fe] (0/1) No match
18 [fc10aad6] (0/1) No match
19 [15b66b23] (0/1) No match
20 [c31273b3] (0/1) No match
21 [d7321e31] (0/1) No match
22 [4b881c2f] (0/1) No match
23 [aa7af197] (0/1) No match
24 [ccec59e5] (0/1) No match
25 [a10dc087] (0/1) No match
Offsetted by 103:
01 [ca8aceac] (0/1) No match
02 [4fa857f7] (0/1) No match
03 [a72d30d4] (0/1) No match
04 [eb1c8fd4] (0/1) No match
05 [58ad4724] (0/1) No match
06 [6a217c15] (0/1) No match
07 [b1ac2e81] (0/1) No match
08 [48586b71] (0/1) No match
09 [b1e76d53] (0/1) No match
10 [01fb16ec] (0/1) No match
11 [73487f62] (0/1) No match
12 [3169d0c0] (1/1) Accurately ripped
13 [5468ccda] (0/1) No match
14 [4eb6c0a3] (0/1) No match
15 [a16d4603] (0/1) No match
16 [a30300a7] (0/1) No match
17 [f192e836] (0/1) No match
18 [1347b50e] (0/1) No match
19 [05fc44eb] (0/1) No match
20 [99a99ac2] (0/1) No match
21 [72ea9036] (0/1) No match
22 [09d13ca6] (0/1) No match
23 [10b16c0a] (0/1) No match
24 [3eceb5e1] (0/1) No match
25 [bf47a8f8] (0/1) No match
Offsetted by 114:
01 [1cde494a] (0/1) No match
02 [0c9fe07f] (0/1) No match
03 [64bbb7e4] (0/1) No match
04 [90d4d295] (0/1) No match
05 [98c66ad1] (0/1) No match
06 [0c76171a] (0/1) No match
07 [96fbc211] (0/1) No match
08 [43cdddc6] (0/1) No match
09 [cf4a6011] (0/1) No match
10 [4555d810] (0/1) No match
11 [5121e610] (0/1) No match
12 [aa5d4733] (0/1) No match
13 [7bf729aa] (1/1) Accurately ripped
14 [c1872616] (0/1) No match
15 [a0892256] (0/1) No match
16 [fb5c7a33] (0/1) No match
17 [d2a4a76e] (0/1) No match
18 [2a7ebf46] (0/1) No match
19 [f6421eb3] (0/1) No match
20 [7040c1d1] (0/1) No match
21 [0ea3023b] (0/1) No match
22 [c81a5d1d] (0/1) No match
23 [76e7e67d] (0/1) No match
24 [b0b111dd] (0/1) No match
25 [dd819169] (0/1) No match
Offsetted by 125:
01 [6f31c3e8] (0/1) No match
02 [c9976907] (0/1) No match
03 [224a3ef4] (0/1) No match
04 [368d1556] (0/1) No match
05 [d8df8e7e] (0/1) No match
06 [aecab21f] (0/1) No match
07 [7c4b55a1] (0/1) No match
08 [3f43501b] (0/1) No match
09 [ecad52cf] (0/1) No match
10 [88b09934] (0/1) No match
11 [2efb4cbe] (0/1) No match
12 [2350bda6] (0/1) No match
13 [a385867a] (0/1) No match
14 [34578b89] (1/1) Accurately ripped
15 [9fa4fea9] (0/1) No match
16 [53b5f3bf] (0/1) No match
17 [b3b666a6] (0/1) No match
18 [41b5c97e] (0/1) No match
19 [e687f87b] (0/1) No match
20 [46d7e8e0] (0/1) No match
21 [aa5b7440] (0/1) No match
22 [86637d94] (0/1) No match
23 [dd1e60f0] (0/1) No match
24 [22936dd9] (0/1) No match
25 [fbbb79da] (0/1) No match
Offsetted by 136:
01 [c1853e86] (0/1) No match
02 [868ef18f] (0/1) No match
03 [dfd8c604] (0/1) No match
04 [dc455817] (0/1) No match
05 [18f8b22b] (0/1) No match
06 [511f4d24] (0/1) No match
07 [619ae931] (0/1) No match
08 [3ab8c270] (0/1) No match
09 [0a10458d] (0/1) No match
10 [cc0b5a58] (0/1) No match
11 [0cd4b36c] (0/1) No match
12 [9c443419] (0/1) No match
13 [cb13e34a] (0/1) No match
14 [a727f0fc] (0/1) No match
15 [9ec0dafc] (1/1) Accurately ripped
16 [ac0f6d4b] (0/1) No match
17 [94c825de] (0/1) No match
18 [58ecd3b6] (0/1) No match
19 [d6cdd243] (0/1) No match
20 [1d6f0fef] (0/1) No match
21 [4613e645] (0/1) No match
22 [44ac9e0b] (0/1) No match
23 [4354db63] (0/1) No match
24 [9475c9d5] (0/1) No match
25 [19f5624b] (0/1) No match
Offsetted by 147:
01 [13d8b924] (0/1) No match
02 [43867a17] (0/1) No match
03 [9d674d14] (0/1) No match
04 [81fd9ad8] (0/1) No match
05 [5911d5d8] (0/1) No match
06 [f373e829] (0/1) No match
07 [46ea7cc1] (0/1) No match
08 [362e34c5] (0/1) No match
09 [2773384b] (0/1) No match
10 [0f661b7c] (0/1) No match
11 [eaae1a1a] (0/1) No match
12 [1537aa8c] (0/1) No match
13 [f2a2401a] (0/1) No match
14 [19f8566f] (0/1) No match
15 [9ddcb74f] (0/1) No match
16 [0468e6d7] (1/1) Accurately ripped
17 [75d9e516] (0/1) No match
18 [7023ddee] (0/1) No match
19 [c713ac0b] (0/1) No match
20 [f40636fe] (0/1) No match
21 [e1cc584a] (0/1) No match
22 [02f5be82] (0/1) No match
23 [a98b55d6] (0/1) No match
24 [065825d1] (0/1) No match
25 [382f4abc] (0/1) No match
Offsetted by 158:
01 [662c33c2] (0/1) No match
02 [007e029f] (0/1) No match
03 [5af5d424] (0/1) No match
04 [27b5dd99] (0/1) No match
05 [992af985] (0/1) No match
06 [95c8832e] (0/1) No match
07 [2c3a1051] (0/1) No match
08 [31a3a71a] (0/1) No match
09 [44d62b09] (0/1) No match
10 [52c0dca0] (0/1) No match
11 [c88780c8] (0/1) No match
12 [8e2b20ff] (0/1) No match
13 [1a309cea] (0/1) No match
14 [8cc8bbe2] (0/1) No match
15 [9cf893a2] (0/1) No match
16 [5cc26063] (0/1) No match
17 [56eba44e] (1/1) Accurately ripped
18 [875ae826] (0/1) No match
19 [b75985d3] (0/1) No match
20 [ca9d5e0d] (0/1) No match
21 [7d84ca4f] (0/1) No match
22 [c13edef9] (0/1) No match
23 [0fc1d049] (0/1) No match
24 [783a81cd] (0/1) No match
25 [5669332d] (0/1) No match
More than 16 offsets match!

Track Peak [ CRC32 ] [W/O NULL] [ LOG ]
– 94,3 [57C9EE6D] [8C5D2279]
01 94,3 [E96E716E] [A3C70E83] CRC32
02 94,2 [EE179D42] [8B1B1319] CRC32
03 92,7 [BBFF6F3A] [80974D34] CRC32
04 74,9 [D362A3E7] [F643ECCC] CRC32
05 85,3 [2EFB019A] [53CAD2E1] CRC32
06 94,2 [68D9C383] [2B6F107E] CRC32
07 94,3 [E1DF0E68] [C7F3C7E5] CRC32
08 84,0 [A51D9FED] [0DBCEC4E] CRC32
09 94,3 [C327561F] [38E8D759] CRC32
10 69,0 [D1168B96] [ECA3E5B7] CRC32
11 94,3 [D87CDD24] [4C4506FE] CRC32
12 94,3 [4F07EBBF] [7705DA39] CRC32
13 94,2 [DA31F871] [4084AEB7] CRC32
14 71,4 [C6AB6C8C] [34971194] CRC32
15 75,0 [1A8E6945] [38A8ECE4] CRC32
16 72,1 [610857DF] [E8964168] CRC32
17 72,1 [467C219C] [DA4B606F] CRC32
18 89,9 [6C212488] [507F02F2] CRC32
19 91,3 [635C2AB8] [2F9F18D7] CRC32
20 92,9 [DABD68AB] [C18AB2A6] CRC32
21 94,3 [E838FBEE] [B8703C61] CRC32
22 84,0 [87CD95F9] [52EA70F9] CRC32
23 84,0 [140480EF] [CEE52BB0] CRC32
24 84,0 [F5F1DBCA] [71F20F26] CRC32
25 94,3 [3FFC5FA8] [17415D9D] CRC32


VA - Atlanta Blues: Big City Blues From The Heartland (2005) [4CD Box Set] Repost

Tracklist CD2:

01. Curley Weaver - Birmingham Gambler (2:55)
02. Georgia Browns - Tampa Strut (2:57)
03. Georgia Browns - Decatur Street 81 (2:48)
04. Georgia Browns - Next Door Man (take 1) (3:07)
05. Georgia Browns - Next Door Man (take 2) (2:57)
06. Georgia Browns - It Must Have Been Her (2:53)
07. Georgia Browns - Who Stole de Lock (2:49)
08. Georgia Browns - Joker Man (2:52)
09. Curley Weaver - You Was Born to Die (2:51)
10. Curley Weaver - Dirty Mistreater (3:11)
11. Curley Weaver - Black Woman (3:17)
12. Curley Weaver - City Cell Blues (3:15)
13. Curley Weaver - Empty Room Blues (3:20)
14. Curley Weaver - Tricks Ain't Walking No More (3:13)
15. Curley Weaver - Sometime Mama (3:09)
16. Curley Weaver - Oh, Lawdy! Mama (3:20)
17. Curley Weaver - Two Faced Woman (3:09)
18. Curley Weaver - Early Morning Blues (3:01)
19. Curley Weaver - Fried Pie Blues (3:03)
20. Curley Weaver - Brown Skin Woman (3:17)
21. Curley Weaver - She Don't Treat Me Good No More (2:54)
22. Curley Weaver - I Keep on Drinkin' (2:34)
23. Curley Weaver - My Baby's Gone (3:02)
24. Curley Weaver - Ticket Agent (2:59)
25. Curley Weaver - Some Rainy Day (2:31)
26. Curley Weaver - Trixie (2:03)

Converted to Image (CUETools 2.1.4)

Exact Audio Copy V0.99 prebeta 4 from 23. January 2008

EAC extraction logfile from 22. November 2008, 9:01

Various Artists / Atlanta Blues - CD 2

Used drive : MATSHITADVD-RAM LF-P567 Adapter: 3 ID: 0

Read mode : Secure
Utilize accurate stream : Yes
Defeat audio cache : Yes
Make use of C2 pointers : No

Read offset correction : 102
Overread into Lead-In and Lead-Out : No
Fill up missing offset samples with silence : Yes
Delete leading and trailing silent blocks : No
Null samples used in CRC calculations : Yes
Used interface : Native Win32 interface for Win NT & 2000
Gap handling : Appended to previous track

Used output format : User Defined Encoder
Selected bitrate : 192 kBit/s
Quality : High
Add ID3 tag : Yes
Command line compressor : C:\Program Files\Exact Audio Copy\FLAC\flac.exe
Additional command line options : -8 -A tukey(0.25) -A gauss(0.1875) -b 4096 -V -T "artist=%a" -T "title=%t" -T "album=%g" -T "date=%y" -T "tracknumber=%n" -T "genre=%m" %s –sector-align


TOC of the extracted CD

Track | Start | Length | Start sector | End sector
––––––––––––––––––––––––––––-
1 | 0:00.00 | 2:54.65 | 0 | 13114
2 | 2:54.65 | 2:56.69 | 13115 | 26383
3 | 5:51.59 | 2:48.35 | 26384 | 39018
4 | 8:40.19 | 3:06.66 | 39019 | 53034
5 | 11:47.10 | 2:57.00 | 53035 | 66309
6 | 14:44.10 | 2:53.33 | 66310 | 79317
7 | 17:37.43 | 2:48.66 | 79318 | 91983
8 | 20:26.34 | 2:51.74 | 91984 | 104882
9 | 23:18.33 | 2:50.43 | 104883 | 117675
10 | 26:09.01 | 3:10.48 | 117676 | 131973
11 | 29:19.49 | 3:17.31 | 131974 | 146779
12 | 32:37.05 | 3:14.46 | 146780 | 161375
13 | 35:51.51 | 3:19.43 | 161376 | 176343
14 | 39:11.19 | 3:12.51 | 176344 | 190794
15 | 42:23.70 | 3:08.70 | 190795 | 204964
16 | 45:32.65 | 3:19.55 | 204965 | 219944
17 | 48:52.45 | 3:08.61 | 219945 | 234105
18 | 52:01.31 | 3:00.43 | 234106 | 247648
19 | 55:01.74 | 3:02.51 | 247649 | 261349
20 | 58:04.50 | 3:16.71 | 261350 | 276120
21 | 61:21.46 | 2:53.57 | 276121 | 289152
22 | 64:15.28 | 2:33.70 | 289153 | 300697
23 | 66:49.23 | 3:01.41 | 300698 | 314313
24 | 69:50.64 | 2:58.57 | 314314 | 327720
25 | 72:49.46 | 2:30.51 | 327721 | 339021
26 | 75:20.22 | 2:03.23 | 339022 | 348269


Track 1

Filename j:\flac\Various\Atlanta Blues - CD 2\01 - Birmingham Gambler [Curley Weaver].wav

Pre-gap length 0:00:02.00

Peak level 94.3 %
Track quality 100.0 %
Test CRC C32DF586
Copy CRC C32DF586
Copy OK

Track 2

Filename j:\flac\Various\Atlanta Blues - CD 2\02 - Tampa Strut [Georgia Browns].wav

Pre-gap length 0:00:02.41

Peak level 94.3 %
Track quality 100.0 %
Test CRC A94F0BB5
Copy CRC A94F0BB5
Copy OK

Track 3

Filename j:\flac\Various\Atlanta Blues - CD 2\03 - Decatur Street 81 [Georgia Browns].wav

Pre-gap length 0:00:02.41

Peak level 94.3 %
Track quality 100.0 %
Test CRC 68FF59E0
Copy CRC 68FF59E0
Copy OK

Track 4

Filename j:\flac\Various\Atlanta Blues - CD 2\04 - Next Door Man (take 1) [Georgia Browns].wav

Pre-gap length 0:00:02.41

Peak level 94.3 %
Track quality 100.0 %
Test CRC C4CD2B51
Copy CRC C4CD2B51
Copy OK

Track 5

Filename j:\flac\Various\Atlanta Blues - CD 2\05 - Next Door Man (take 2) [Georgia Browns].wav

Pre-gap length 0:00:02.41

Peak level 94.3 %
Track quality 99.9 %
Test CRC 2C6F01D2
Copy CRC 2C6F01D2
Copy OK

Track 6

Filename j:\flac\Various\Atlanta Blues - CD 2\06 - It Must Have Been Her [Georgia Browns].wav

Pre-gap length 0:00:02.41

Peak level 84.0 %
Track quality 100.0 %
Test CRC E8CEDC70
Copy CRC E8CEDC70
Copy OK

Track 7

Filename j:\flac\Various\Atlanta Blues - CD 2\07 - Who Stole de Lock [Georgia Browns].wav

Pre-gap length 0:00:02.41

Peak level 68.3 %
Track quality 100.0 %
Test CRC D166BB60
Copy CRC D166BB60
Copy OK

Track 8

Filename j:\flac\Various\Atlanta Blues - CD 2\08 - Joker Man [Georgia Browns].wav

Pre-gap length 0:00:02.41

Peak level 84.0 %
Track quality 99.9 %
Test CRC CD6BF46D
Copy CRC CD6BF46D
Copy OK

Track 9

Filename j:\flac\Various\Atlanta Blues - CD 2\09 - You Was Born to Die [Curley Weaver].wav

Pre-gap length 0:00:02.41

Peak level 88.9 %
Track quality 100.0 %
Test CRC 351BD47F
Copy CRC 351BD47F
Copy OK

Track 10

Filename j:\flac\Various\Atlanta Blues - CD 2\10 - Dirty Mistreater [Curley Weaver].wav

Pre-gap length 0:00:02.41

Peak level 94.2 %
Track quality 100.0 %
Test CRC C686598E
Copy CRC C686598E
Copy OK

Track 11

Filename j:\flac\Various\Atlanta Blues - CD 2\11 - Black Woman [Curley Weaver].wav

Pre-gap length 0:00:02.41

Peak level 74.9 %
Track quality 100.0 %
Test CRC C0BBF28A
Copy CRC C0BBF28A
Copy OK

Track 12

Filename j:\flac\Various\Atlanta Blues - CD 2\12 - City Cell Blues [Curley Weaver].wav

Pre-gap length 0:00:02.41

Peak level 74.8 %
Track quality 99.9 %
Test CRC B1F7325F
Copy CRC B1F7325F
Copy OK

Track 13

Filename j:\flac\Various\Atlanta Blues - CD 2\13 - Empty Room Blues [Curley Weaver].wav

Pre-gap length 0:00:02.41

Peak level 94.2 %
Track quality 99.9 %
Test CRC 7B36CA8B
Copy CRC 7B36CA8B
Copy OK

Track 14

Filename j:\flac\Various\Atlanta Blues - CD 2\14 - Tricks Ain't Walking No More [Curley Weaver].wav

Pre-gap length 0:00:02.41

Peak level 84.0 %
Track quality 100.0 %
Test CRC D613A78C
Copy CRC D613A78C
Copy OK

Track 15

Filename j:\flac\Various\Atlanta Blues - CD 2\15 - Sometime Mama [Curley Weaver].wav

Pre-gap length 0:00:02.41

Peak level 84.0 %
Track quality 99.9 %
Test CRC E067B9A9
Copy CRC E067B9A9
Copy OK

Track 16

Filename j:\flac\Various\Atlanta Blues - CD 2\16 - Oh, Lawdy! Mama [Curley Weaver].wav

Pre-gap length 0:00:02.41

Peak level 89.3 %
Track quality 100.0 %
Test CRC 3A34C6A9
Copy CRC 3A34C6A9
Copy OK

Track 17

Filename j:\flac\Various\Atlanta Blues - CD 2\17 - Two Faced Woman [Curley Weaver].wav

Pre-gap length 0:00:02.41

Peak level 94.2 %
Track quality 100.0 %
Test CRC 3FC60208
Copy CRC 3FC60208
Copy OK

Track 18

Filename j:\flac\Various\Atlanta Blues - CD 2\18 - Early Morning Blues [Curley Weaver].wav

Pre-gap length 0:00:02.41

Peak level 84.0 %
Track quality 100.0 %
Test CRC 8898AA29
Copy CRC 8898AA29
Copy OK

Track 19

Filename j:\flac\Various\Atlanta Blues - CD 2\19 - Fried Pie Blues [Curley Weaver].wav

Pre-gap length 0:00:02.41

Peak level 94.3 %
Track quality 100.0 %
Test CRC BA95A23E
Copy CRC BA95A23E
Copy OK

Track 20

Filename j:\flac\Various\Atlanta Blues - CD 2\20 - Brown Skin Woman [Curley Weaver].wav

Pre-gap length 0:00:02.41

Peak level 92.2 %
Track quality 100.0 %
Test CRC 12454219
Copy CRC 12454219
Copy OK

Track 21

Filename j:\flac\Various\Atlanta Blues - CD 2\21 - She Don't Treat Me Good No More [Curley Weaver].wav

Pre-gap length 0:00:02.41

Peak level 94.2 %
Track quality 100.0 %
Test CRC 0C8B3381
Copy CRC 0C8B3381
Copy OK

Track 22

Filename j:\flac\Various\Atlanta Blues - CD 2\22 - I Keep on Drinkin' [Curley Weaver].wav

Pre-gap length 0:00:02.41

Peak level 94.2 %
Track quality 100.0 %
Test CRC BB5BB955
Copy CRC BB5BB955
Copy OK

Track 23

Filename j:\flac\Various\Atlanta Blues - CD 2\23 - My Baby's Gone [Curley Weaver].wav

Pre-gap length 0:00:02.41

Peak level 84.2 %
Track quality 100.0 %
Test CRC AB52517A
Copy CRC AB52517A
Copy OK

Track 24

Filename j:\flac\Various\Atlanta Blues - CD 2\24 - Ticket Agent [Curley Weaver].wav

Pre-gap length 0:00:02.41

Peak level 94.3 %
Track quality 100.0 %
Test CRC 9C327F04
Copy CRC 9C327F04
Copy OK

Track 25

Filename j:\flac\Various\Atlanta Blues - CD 2\25 - Some Rainy Day [Curley Weaver].wav

Pre-gap length 0:00:02.41

Peak level 84.0 %
Track quality 100.0 %
Test CRC D34AE6D8
Copy CRC D34AE6D8
Copy OK

Track 26

Filename j:\flac\Various\Atlanta Blues - CD 2\26 - Trixie [Curley Weaver].wav

Pre-gap length 0:00:02.41

Peak level 66.7 %
Track quality 100.0 %
Test CRC 3CF38251
Copy CRC 3CF38251
Copy OK

No errors occurred

End of status report


[CUETools log; Date: 22.02.2018 16:05:54; Version: 2.1.5]
[AccurateRip ID: 0048aac3-0550ac8a-6f12231a] found.
Track [ CRC | V2 ] Status
01 [dbefac97|e3043f99] (0+0/1) No match
02 [a3e8b91e|c9072646] (0+0/1) No match
03 [a06e755f|bd90f8df] (0+0/1) No match
04 [62003b87|d950dc71] (0+0/1) No match
05 [f6647c90|847fdb90] (0+0/1) No match
06 [403bcc6f|3625d04b] (0+0/1) No match
07 [045d4819|1bf22ac5] (0+0/1) No match
08 [d5e45012|bc0ece02] (0+0/1) No match
09 [3dd2ced6|f6f47984] (0+0/1) No match
10 [71a9391c|b4e17386] (0+0/1) No match
11 [2355b9f5|ec945cc9] (0+0/1) No match
12 [a104ca84|78dde644] (0+0/1) No match
13 [ba153679|9a575c14] (0+0/1) No match
14 [1f06992d|7ec09f83] (0+0/1) No match
15 [d5487921|39759103] (0+0/1) No match
16 [cc4b972b|08a1be46] (0+0/1) No match
17 [d9c11bdd|3f6fa101] (0+0/1) No match
18 [be195e29|65ed9827] (0+0/1) No match
19 [2952f8d1|6359d5e7] (0+0/1) No match
20 [84ecd39e|b7525bd2] (0+0/1) No match
21 [61b3164a|198588d3] (0+0/1) No match
22 [82342145|0ec132d9] (0+0/1) No match
23 [dbe4a3c6|7f695444] (0+0/1) No match
24 [78ec4bd0|27b1f20a] (0+0/1) No match
25 [e91ef6c3|53b48e2d] (0+0/1) No match
26 [362e73cf|ca2513fe] (0+0/1) No match
Offsetted by -18:
01 [4636e19d] (1/1) Accurately ripped
02 [76a28648] (0/1) No match
03 [54198da7] (0/1) No match
04 [3f3c9751] (0/1) No match
05 [4a66cc78] (0/1) No match
06 [6aa8897b] (0/1) No match
07 [1b1f5647] (0/1) No match
08 [6d58c20e] (0/1) No match
09 [79f0189e] (0/1) No match
10 [ba905c5e] (0/1) No match
11 [fe85c8ed] (0/1) No match
12 [b6a4dcca] (0/1) No match
13 [ea841d37] (0/1) No match
14 [422b64fd] (0/1) No match
15 [33435651] (0/1) No match
16 [413db4e3] (0/1) No match
17 [50e7032b] (0/1) No match
18 [489328bb] (0/1) No match
19 [41d999f1] (0/1) No match
20 [936702da] (0/1) No match
21 [2225d056] (0/1) No match
22 [bf3b6611] (0/1) No match
23 [6e895dbe] (0/1) No match
24 [2d01ae8e] (0/1) No match
25 [b39b58b1] (0/1) No match
26 [8a1eb759] (0/1) No match
Offsetted by -7:
01 [137d24c4] (0/1) No match
02 [75dba559] (1/1) Accurately ripped
03 [49dba97b] (0/1) No match
04 [ff25ed72] (0/1) No match
05 [08d729dc] (0/1) No match
06 [50bb6b49] (0/1) No match
07 [b7e1a2f2] (0/1) No match
08 [9f035ff4] (0/1) No match
09 [0e171632] (0/1) No match
10 [f191550b] (0/1) No match
11 [1504dc39] (0/1) No match
12 [0cfbee11] (0/1) No match
13 [db23e58a] (0/1) No match
14 [3aea3dc5] (0/1) No match
15 [cf2a0809] (0/1) No match
16 [9637f80f] (0/1) No match
17 [dd6c4b26] (0/1) No match
18 [10652cf0] (0/1) No match
19 [b2dca941] (0/1) No match
20 [0a8e1ee0] (0/1) No match
21 [2c8a5ea4] (0/1) No match
22 [e10c4a3f] (0/1) No match
23 [787a088a] (0/1) No match
24 [3ef49ce1] (0/1) No match
25 [544f55bc] (0/1) No match
26 [d6d2ffda] (0/1) No match
Offsetted by 4:
01 [e0c367eb] (0/1) No match
02 [7514c46a] (0/1) No match
03 [3f9dc54f] (1/1) Accurately ripped
04 [bf0f4393] (0/1) No match
05 [c7478740] (0/1) No match
06 [36ce4d17] (0/1) No match
07 [54a3ef9d] (0/1) No match
08 [d0adfdda] (0/1) No match
09 [a23e13c6] (0/1) No match
10 [28924db8] (0/1) No match
11 [2b83ef85] (0/1) No match
12 [6352ff58] (0/1) No match
13 [cbc3addd] (0/1) No match
14 [33a9168d] (0/1) No match
15 [6b10b9c1] (0/1) No match
16 [eb323b3b] (0/1) No match
17 [69f19321] (0/1) No match
18 [d8373125] (0/1) No match
19 [23dfb891] (0/1) No match
20 [81b53ae6] (0/1) No match
21 [36eeecf2] (0/1) No match
22 [02dd2e6d] (0/1) No match
23 [826ab356] (0/1) No match
24 [50e78b34] (0/1) No match
25 [f50352c7] (0/1) No match
26 [2387485b] (0/1) No match
Offsetted by 15:
01 [ae09ab12] (0/1) No match
02 [744de37b] (0/1) No match
03 [355fe123] (0/1) No match
04 [7ef899b4] (1/1) Accurately ripped
05 [85b7e4a4] (0/1) No match
06 [1ce12ee5] (0/1) No match
07 [f1663c48] (0/1) No match
08 [02589bc0] (0/1) No match
09 [3665115a] (0/1) No match
10 [5f934665] (0/1) No match
11 [420302d1] (0/1) No match
12 [b9aa109f] (0/1) No match
13 [bc637630] (0/1) No match
14 [2c67ef55] (0/1) No match
15 [06f76b79] (0/1) No match
16 [402c7e67] (0/1) No match
17 [f676db1c] (0/1) No match
18 [a009355a] (0/1) No match
19 [94e2c7e1] (0/1) No match
20 [f8dc56ec] (0/1) No match
21 [41537b40] (0/1) No match
22 [24ae129b] (0/1) No match
23 [8c5b5e22] (0/1) No match
24 [62da7987] (0/1) No match
25 [95b74fd2] (0/1) No match
26 [703b90dc] (0/1) No match
Offsetted by 26:
01 [7b4fee39] (0/1) No match
02 [7387028c] (0/1) No match
03 [2b21fcf7] (0/1) No match
04 [3ee1efd5] (0/1) No match
05 [44284208] (1/1) Accurately ripped
06 [02f410b3] (0/1) No match
07 [8e2888f3] (0/1) No match
08 [340339a6] (0/1) No match
09 [ca8c0eee] (0/1) No match
10 [96943f12] (0/1) No match
11 [5882161d] (0/1) No match
12 [100121e6] (0/1) No match
13 [ad033e83] (0/1) No match
14 [2526c81d] (0/1) No match
15 [a2de1d31] (0/1) No match
16 [9526c193] (0/1) No match
17 [82fc2317] (0/1) No match
18 [67db398f] (0/1) No match
19 [05e5d731] (0/1) No match
20 [700372f2] (0/1) No match
21 [4bb8098e] (0/1) No match
22 [467ef6c9] (0/1) No match
23 [964c08ee] (0/1) No match
24 [74cd67da] (0/1) No match
25 [366b4cdd] (0/1) No match
26 [bcefd95d] (0/1) No match
Offsetted by 37:
01 [48963160] (0/1) No match
02 [72c0219d] (0/1) No match
03 [20e418cb] (0/1) No match
04 [fecb45f6] (0/1) No match
05 [02989f6c] (0/1) No match
06 [e906f281] (1/1) Accurately ripped
07 [2aead59e] (0/1) No match
08 [65add78c] (0/1) No match
09 [5eb30c82] (0/1) No match
10 [cd9537bf] (0/1) No match
11 [6f012969] (0/1) No match
12 [6658332d] (0/1) No match
13 [9da306d6] (0/1) No match
14 [1de5a0e5] (0/1) No match
15 [3ec4cee9] (0/1) No match
16 [ea2104bf] (0/1) No match
17 [0f816b12] (0/1) No match
18 [2fad3dc4] (0/1) No match
19 [76e8e681] (0/1) No match
20 [e72a8ef8] (0/1) No match
21 [561c97dc] (0/1) No match
22 [684fdaf7] (0/1) No match
23 [a03cb3ba] (0/1) No match
24 [86c0562d] (0/1) No match
25 [d71f49e8] (0/1) No match
26 [09a421de] (0/1) No match
Offsetted by 48:
01 [15dc7487] (0/1) No match
02 [71f940ae] (0/1) No match
03 [16a6349f] (0/1) No match
04 [beb49c17] (0/1) No match
05 [c108fcd0] (0/1) No match
06 [cf19d44f] (0/1) No match
07 [c7ad2249] (1/1) Accurately ripped
08 [97587572] (0/1) No match
09 [f2da0a16] (0/1) No match
10 [0496306c] (0/1) No match
11 [85803cb5] (0/1) No match
12 [bcaf4474] (0/1) No match
13 [8e42cf29] (0/1) No match
14 [16a479ad] (0/1) No match
15 [daab80a1] (0/1) No match
16 [3f1b47eb] (0/1) No match
17 [9c06b30d] (0/1) No match
18 [f77f41f9] (0/1) No match
19 [e7ebf5d1] (0/1) No match
20 [5e51aafe] (0/1) No match
21 [6081262a] (0/1) No match
22 [8a20bf25] (0/1) No match
23 [aa2d5e86] (0/1) No match
24 [98b34480] (0/1) No match
25 [77d346f3] (0/1) No match
26 [56586a5f] (0/1) No match
Offsetted by 59:
01 [e322b7ae] (0/1) No match
02 [71325fbf] (0/1) No match
03 [0c685073] (0/1) No match
04 [7e9df238] (0/1) No match
05 [7f795a34] (0/1) No match
06 [b52cb61d] (0/1) No match
07 [646f6ef4] (0/1) No match
08 [c9031358] (1/1) Accurately ripped
09 [870107aa] (0/1) No match
10 [3b972919] (0/1) No match
11 [9bff5001] (0/1) No match
12 [130655bb] (0/1) No match
13 [7ee2977c] (0/1) No match
14 [0f635275] (0/1) No match
15 [76923259] (0/1) No match
16 [94158b17] (0/1) No match
17 [288bfb08] (0/1) No match
18 [bf51462e] (0/1) No match
19 [58ef0521] (0/1) No match
20 [d578c704] (0/1) No match
21 [6ae5b478] (0/1) No match
22 [abf1a353] (0/1) No match
23 [b41e0952] (0/1) No match
24 [aaa632d3] (0/1) No match
25 [188743fe] (0/1) No match
26 [a30cb2e0] (0/1) No match
Offsetted by 70:
01 [b068fad5] (0/1) No match
02 [706b7ed0] (0/1) No match
03 [022a6c47] (0/1) No match
04 [3e874859] (0/1) No match
05 [3de9b798] (0/1) No match
06 [9b3f97eb] (0/1) No match
07 [0131bb9f] (0/1) No match
08 [faadb13e] (0/1) No match
09 [1b28053e] (1/1) Accurately ripped
10 [729821c6] (0/1) No match
11 [b27e634d] (0/1) No match
12 [695d6702] (0/1) No match
13 [6f825fcf] (0/1) No match
14 [08222b3d] (0/1) No match
15 [1278e411] (0/1) No match
16 [e90fce43] (0/1) No match
17 [b5114303] (0/1) No match
18 [87234a63] (0/1) No match
19 [c9f21471] (0/1) No match
20 [4c9fe30a] (0/1) No match
21 [754a42c6] (0/1) No match
22 [cdc28781] (0/1) No match
23 [be0eb41e] (0/1) No match
24 [bc992126] (0/1) No match
25 [b93b4109] (0/1) No match
26 [efc0fb61] (0/1) No match
Offsetted by 81:
01 [7daf3dfc] (0/1) No match
02 [6fa49de1] (0/1) No match
03 [f7ec881b] (0/1) No match
04 [fe709e7a] (0/1) No match
05 [fc5a14fc] (0/1) No match
06 [815279b9] (0/1) No match
07 [9df4084a] (0/1) No match
08 [2c584f24] (0/1) No match
09 [af4f02d2] (0/1) No match
10 [a9991a73] (1/1) Accurately ripped
11 [c8fd7699] (0/1) No match
12 [bfb47849] (0/1) No match
13 [60222822] (0/1) No match
14 [00e10405] (0/1) No match
15 [ae5f95c9] (0/1) No match
16 [3e0a116f] (0/1) No match
17 [41968afe] (0/1) No match
18 [4ef54e98] (0/1) No match
19 [3af523c1] (0/1) No match
20 [c3c6ff10] (0/1) No match
21 [7faed114] (0/1) No match
22 [ef936baf] (0/1) No match
23 [c7ff5eea] (0/1) No match
24 [ce8c0f79] (0/1) No match
25 [59ef3e14] (0/1) No match
26 [3c7543e2] (0/1) No match
Offsetted by 92:
01 [4af58123] (0/1) No match
02 [6eddbcf2] (0/1) No match
03 [edaea3ef] (0/1) No match
04 [be59f49b] (0/1) No match
05 [baca7260] (0/1) No match
06 [67655b87] (0/1) No match
07 [3ab654f5] (0/1) No match
08 [5e02ed0a] (0/1) No match
09 [43760066] (0/1) No match
10 [e09a1320] (0/1) No match
11 [df7c89e5] (1/1) Accurately ripped
12 [160b8990] (0/1) No match
13 [50c1f075] (0/1) No match
14 [f99fdccd] (0/1) No match
15 [4a464781] (0/1) No match
16 [9304549b] (0/1) No match
17 [ce1bd2f9] (0/1) No match
18 [16c752cd] (0/1) No match
19 [abf83311] (0/1) No match
20 [3aee1b16] (0/1) No match
21 [8a135f62] (0/1) No match
22 [11644fdd] (0/1) No match
23 [d1f009b6] (0/1) No match
24 [e07efdcc] (0/1) No match
25 [faa33b1f] (0/1) No match
26 [89298c63] (0/1) No match
Offsetted by 103:
01 [183bc44a] (0/1) No match
02 [6e16dc03] (0/1) No match
03 [e370bfc3] (0/1) No match
04 [7e434abc] (0/1) No match
05 [793acfc4] (0/1) No match
06 [4d783d55] (0/1) No match
07 [d778a1a0] (0/1) No match
08 [8fad8af0] (0/1) No match
09 [d79cfdfa] (0/1) No match
10 [179b0bcd] (0/1) No match
11 [f5fb9d31] (0/1) No match
12 [6c629ad7] (1/1) Accurately ripped
13 [4161b8c8] (0/1) No match
14 [f25eb595] (0/1) No match
15 [e62cf939] (0/1) No match
16 [e7fe97c7] (0/1) No match
17 [5aa11af4] (0/1) No match
18 [de995702] (0/1) No match
19 [1cfb4261] (0/1) No match
20 [b215371c] (0/1) No match
21 [9477edb0] (0/1) No match
22 [3335340b] (0/1) No match
23 [dbe0b482] (0/1) No match
24 [f271ec1f] (0/1) No match
25 [9b57382a] (0/1) No match
26 [d5ddd4e4] (0/1) No match
Offsetted by 114:
01 [e5820771] (0/1) No match
02 [6d4ffb14] (0/1) No match
03 [d932db97] (0/1) No match
04 [3e2ca0dd] (0/1) No match
05 [37ab2d28] (0/1) No match
06 [338b1f23] (0/1) No match
07 [743aee4b] (0/1) No match
08 [c15828d6] (0/1) No match
09 [6bc3fb8e] (0/1) No match
10 [4e9c047a] (0/1) No match
11 [0c7ab07d] (0/1) No match
12 [c2b9ac1e] (0/1) No match
13 [3201811b] (1/1) Accurately ripped
14 [eb1d8e5d] (0/1) No match
15 [8213aaf1] (0/1) No match
16 [3cf8daf3] (0/1) No match
17 [e72662ef] (0/1) No match
18 [a66b5b37] (0/1) No match
19 [8dfe51b1] (0/1) No match
20 [293c5322] (0/1) No match
21 [9edc7bfe] (0/1) No match
22 [55061839] (0/1) No match
23 [e5d15f4e] (0/1) No match
24 [0464da72] (0/1) No match
25 [3c0b3535] (0/1) No match
26 [22921d65] (0/1) No match
Offsetted by 125:
01 [b2c84a98] (0/1) No match
02 [6c891a25] (0/1) No match
03 [cef4f76b] (0/1) No match
04 [fe15f6fe] (0/1) No match
05 [f61b8a8c] (0/1) No match
06 [199e00f1] (0/1) No match
07 [10fd3af6] (0/1) No match
08 [f302c6bc] (0/1) No match
09 [ffeaf922] (0/1) No match
10 [859cfd27] (0/1) No match
11 [22f9c3c9] (0/1) No match
12 [1910bd65] (0/1) No match
13 [22a1496e] (0/1) No match
14 [e3dc6725] (1/1) Accurately ripped
15 [1dfa5ca9] (0/1) No match
16 [91f31e1f] (0/1) No match
17 [73abaaea] (0/1) No match
18 [6e3d5f6c] (0/1) No match
19 [ff016101] (0/1) No match
20 [a0636f28] (0/1) No match
21 [a9410a4c] (0/1) No match
22 [76d6fc67] (0/1) No match
23 [efc20a1a] (0/1) No match
24 [1657c8c5] (0/1) No match
25 [dcbf3240] (0/1) No match
26 [6f4665e6] (0/1) No match
Offsetted by 136:
01 [800e8dbf] (0/1) No match
02 [6bc23936] (0/1) No match
03 [c4b7133f] (0/1) No match
04 [bdff4d1f] (0/1) No match
05 [b48be7f0] (0/1) No match
06 [ffb0e2bf] (0/1) No match
07 [adbf87a1] (0/1) No match
08 [24ad64a2] (0/1) No match
09 [9411f6b6] (0/1) No match
10 [bc9df5d4] (0/1) No match
11 [3978d715] (0/1) No match
12 [6f67ceac] (0/1) No match
13 [134111c1] (0/1) No match
14 [dc9b3fed] (0/1) No match
15 [b9e10e61] (1/1) Accurately ripped
16 [e6ed614b] (0/1) No match
17 [0030f2e5] (0/1) No match
18 [360f63a1] (0/1) No match
19 [70047051] (0/1) No match
20 [178a8b2e] (0/1) No match
21 [b3a5989a] (0/1) No match
22 [98a7e095] (0/1) No match
23 [f9b2b4e6] (0/1) No match
24 [284ab718] (0/1) No match
25 [7d732f4b] (0/1) No match
26 [bbfaae67] (0/1) No match
Offsetted by 147:
01 [4d54d0e6] (0/1) No match
02 [6afb5847] (0/1) No match
03 [ba792f13] (0/1) No match
04 [7de8a340] (0/1) No match
05 [72fc4554] (0/1) No match
06 [e5c3c48d] (0/1) No match
07 [4a81d44c] (0/1) No match
08 [56580288] (0/1) No match
09 [2838f44a] (0/1) No match
10 [f39eee81] (0/1) No match
11 [4ff7ea61] (0/1) No match
12 [c5bedff3] (0/1) No match
13 [03e0da14] (0/1) No match
14 [d55a18b5] (0/1) No match
15 [55c7c019] (0/1) No match
16 [3be7a477] (1/1) Accurately ripped
17 [8cb63ae0] (0/1) No match
18 [fde167d6] (0/1) No match
19 [e1077fa1] (0/1) No match
20 [8eb1a734] (0/1) No match
21 [be0a26e8] (0/1) No match
22 [ba78c4c3] (0/1) No match
23 [03a35fb2] (0/1) No match
24 [3a3da56b] (0/1) No match
25 [1e272c56] (0/1) No match
26 [08aef6e8] (0/1) No match
Offsetted by 158:
01 [1a9b140d] (0/1) No match
02 [6a347758] (0/1) No match
03 [b03b4ae7] (0/1) No match
04 [3dd1f961] (0/1) No match
05 [316ca2b8] (0/1) No match
06 [cbd6a65b] (0/1) No match
07 [e74420f7] (0/1) No match
08 [8802a06e] (0/1) No match
09 [bc5ff1de] (0/1) No match
10 [2a9fe72e] (0/1) No match
11 [6676fdad] (0/1) No match
12 [1c15f13a] (0/1) No match
13 [f480a267] (0/1) No match
14 [ce18f17d] (0/1) No match
15 [f1ae71d1] (0/1) No match
16 [90e1e7a3] (0/1) No match
17 [193b82db] (1/1) Accurately ripped
18 [c5b36c0b] (0/1) No match
19 [520a8ef1] (0/1) No match
20 [05d8c33a] (0/1) No match
21 [c86eb536] (0/1) No match
22 [dc49a8f1] (0/1) No match
23 [0d940a7e] (0/1) No match
24 [4c3093be] (0/1) No match
25 [bedb2961] (0/1) No match
26 [55633f69] (0/1) No match
More than 16 offsets match!

Track Peak [ CRC32 ] [W/O NULL] [ LOG ]
– 94,3 [8784B734] [AAADB407]
01 94,3 [C32DF586] [129D4D28] CRC32
02 94,3 [A94F0BB5] [90DB04DE] CRC32
03 94,3 [68FF59E0] [CD4BD572] CRC32
04 94,3 [C4CD2B51] [F4DE9FF1] CRC32
05 94,3 [2C6F01D2] [B67BFE01] CRC32
06 84,0 [E8CEDC70] [9C0C0183] CRC32
07 68,3 [D166BB60] [FF8D00AA] CRC32
08 84,0 [CD6BF46D] [D52A7BC9] CRC32
09 88,9 [351BD47F] [FD03EB91] CRC32
10 94,2 [C686598E] [A6E993E9] CRC32
11 74,9 [C0BBF28A] [5C16A0C1] CRC32
12 74,8 [B1F7325F] [1FBEFB4D] CRC32
13 94,2 [7B36CA8B] [175F8399] CRC32
14 84,0 [D613A78C] [6F47C248] CRC32
15 84,0 [E067B9A9] [77F8A0BD] CRC32
16 89,3 [3A34C6A9] [72066776] CRC32
17 94,2 [3FC60208] [3DDBE213] CRC32
18 84,0 [8898AA29] [1324E059] CRC32
19 94,3 [BA95A23E] [69D3D817] CRC32
20 92,2 [12454219] [BB39FBDA] CRC32
21 94,2 [0C8B3381] [0E59E6D9] CRC32
22 94,2 [BB5BB955] [CA28D404] CRC32
23 84,2 [AB52517A] [C31D65EE] CRC32
24 94,3 [9C327F04] [A008243F] CRC32
25 84,0 [D34AE6D8] [321AB515] CRC32
26 66,7 [3CF38251] [0EA80CD4] CRC32


VA - Atlanta Blues: Big City Blues From The Heartland (2005) [4CD Box Set] Repost

Tracklist CD3:

01. Coal Man Blues (3:07)
02. Tishamingo Blues (3:20)
03. New Prison Blues (3:16)
04. Fo' Day Blues (3:11)
05. New Jelly Roll Blues (3:01)
06. Beaver Slide Rag (3:23)
07. Papa Stobb Blues (3:41)
08. Sadie Lee Blues (3:09)
09. Too Tight Blues (3:10)
10. Moanin' & Groanin' Blues (3:35)
11. Hobo Blues (3:19)
12. Peg Leg Stomp (3:31)
13. Doin' Wrong (3:02)
14. Skin Game Blues (3:06)
15. Please, Ma'am (3:01)
16. Rock & Gravel Blues (3:11)
17. Low-Down Rounder Blues (2:52)
18. Fairy Blues (2:57)
19. Banjo Blues (3:00)
20. Turkey Buzzard Blues (3:13)
21. Turtle Dove Blues (3:10)
22. Walkin' Blues (3:06)
23. Broke & Hungry Blues (3:20)
24. Rolling Mill Blues (3:08)
25. Ball & Chain Blues (3:02)
all tracks - Peg Leg Howell

Converted to Image (CUETools 2.1.4)

Exact Audio Copy V0.99 prebeta 4 from 23. January 2008

EAC extraction logfile from 22. November 2008, 10:25

Various Artists / Atlanta Blues - CD 3

Used drive : MATSHITADVD-RAM LF-P567 Adapter: 3 ID: 0

Read mode : Secure
Utilize accurate stream : Yes
Defeat audio cache : Yes
Make use of C2 pointers : No

Read offset correction : 102
Overread into Lead-In and Lead-Out : No
Fill up missing offset samples with silence : Yes
Delete leading and trailing silent blocks : No
Null samples used in CRC calculations : Yes
Used interface : Native Win32 interface for Win NT & 2000
Gap handling : Appended to previous track

Used output format : User Defined Encoder
Selected bitrate : 192 kBit/s
Quality : High
Add ID3 tag : Yes
Command line compressor : C:\Program Files\Exact Audio Copy\FLAC\flac.exe
Additional command line options : -8 -A tukey(0.25) -A gauss(0.1875) -b 4096 -V -T "artist=%a" -T "title=%t" -T "album=%g" -T "date=%y" -T "tracknumber=%n" -T "genre=%m" %s –sector-align


TOC of the extracted CD

Track | Start | Length | Start sector | End sector
––––––––––––––––––––––––––––-
1 | 0:00.00 | 3:06.69 | 0 | 14018
2 | 3:06.69 | 3:19.62 | 14019 | 29005
3 | 6:26.56 | 3:16.16 | 29006 | 43721
4 | 9:42.72 | 3:11.24 | 43722 | 58070
5 | 12:54.21 | 3:00.39 | 58071 | 71609
6 | 15:54.60 | 3:23.00 | 71610 | 86834
7 | 19:17.60 | 3:40.46 | 86835 | 103380
8 | 22:58.31 | 3:08.73 | 103381 | 117553
9 | 26:07.29 | 3:09.61 | 117554 | 131789
10 | 29:17.15 | 3:34.57 | 131790 | 147896
11 | 32:51.72 | 3:18.65 | 147897 | 162811
12 | 36:10.62 | 3:31.07 | 162812 | 178643
13 | 39:41.69 | 3:02.19 | 178644 | 192312
14 | 42:44.13 | 3:06.36 | 192313 | 206298
15 | 45:50.49 | 3:01.12 | 206299 | 219885
16 | 48:51.61 | 3:10.54 | 219886 | 234189
17 | 52:02.40 | 2:51.38 | 234190 | 247052
18 | 54:54.03 | 2:56.58 | 247053 | 260310
19 | 57:50.61 | 3:00.20 | 260311 | 273830
20 | 60:51.06 | 3:12.48 | 273831 | 288278
21 | 64:03.54 | 3:10.20 | 288279 | 302548
22 | 67:13.74 | 3:05.52 | 302549 | 316475
23 | 70:19.51 | 3:19.71 | 316476 | 331471
24 | 73:39.47 | 3:07.57 | 331472 | 345553
25 | 76:47.29 | 3:02.25 | 345554 | 359228


Track 1

Filename j:\flac\Various\Atlanta Blues - CD 3\01 - Coal Man Blues [Peg Leg Howell].wav

Pre-gap length 0:00:02.00

Peak level 88.3 %
Track quality 100.0 %
Test CRC 9D05CDA3
Copy CRC 9D05CDA3
Copy OK

Track 2

Filename j:\flac\Various\Atlanta Blues - CD 3\02 - Tishamingo Blues [Peg Leg Howell].wav

Pre-gap length 0:00:02.01

Peak level 84.0 %
Track quality 100.0 %
Test CRC F9FB1EEC
Copy CRC F9FB1EEC
Copy OK

Track 3

Filename j:\flac\Various\Atlanta Blues - CD 3\03 - New Prison Blues [Peg Leg Howell].wav

Pre-gap length 0:00:02.01

Peak level 94.2 %
Track quality 99.9 %
Test CRC 01CA27B0
Copy CRC 01CA27B0
Copy OK

Track 4

Filename j:\flac\Various\Atlanta Blues - CD 3\04 - Fo' Day Blues [Peg Leg Howell].wav

Pre-gap length 0:00:02.01

Peak level 93.2 %
Track quality 100.0 %
Test CRC 083AC694
Copy CRC 083AC694
Copy OK

Track 5

Filename j:\flac\Various\Atlanta Blues - CD 3\05 - New Jelly Roll Blues [Peg Leg Howell].wav

Pre-gap length 0:00:02.01

Peak level 92.1 %
Track quality 100.0 %
Test CRC 6480763C
Copy CRC 6480763C
Copy OK

Track 6

Filename j:\flac\Various\Atlanta Blues - CD 3\06 - Beaver Slide Rag [Peg Leg Howell].wav

Pre-gap length 0:00:02.01

Peak level 94.2 %
Track quality 100.0 %
Test CRC 1E5CA999
Copy CRC 1E5CA999
Copy OK

Track 7

Filename j:\flac\Various\Atlanta Blues - CD 3\07 - Papa Stobb Blues [Peg Leg Howell].wav

Pre-gap length 0:00:02.01

Peak level 86.2 %
Track quality 100.0 %
Test CRC 24E6DA38
Copy CRC 24E6DA38
Copy OK

Track 8

Filename j:\flac\Various\Atlanta Blues - CD 3\08 - Sadie Lee Blues [Peg Leg Howell].wav

Pre-gap length 0:00:02.01

Peak level 84.0 %
Track quality 100.0 %
Test CRC AFB6EDBB
Copy CRC AFB6EDBB
Copy OK

Track 9

Filename j:\flac\Various\Atlanta Blues - CD 3\09 - Too Tight Blues [Peg Leg Howell].wav

Pre-gap length 0:00:02.01

Peak level 84.0 %
Track quality 100.0 %
Test CRC BDF5EE1F
Copy CRC BDF5EE1F
Copy OK

Track 10

Filename j:\flac\Various\Atlanta Blues - CD 3\10 - Moanin' & Groanin' Blues [Peg Leg Howell].wav

Pre-gap length 0:00:02.01

Peak level 90.1 %
Track quality 100.0 %
Test CRC 1CA6949A
Copy CRC 1CA6949A
Copy OK

Track 11

Filename j:\flac\Various\Atlanta Blues - CD 3\11 - Hobo Blues [Peg Leg Howell].wav

Pre-gap length 0:00:02.01

Peak level 87.3 %
Track quality 100.0 %
Test CRC 614992BE
Copy CRC 614992BE
Copy OK

Track 12

Filename j:\flac\Various\Atlanta Blues - CD 3\12 - Peg Leg Stomp [Peg Leg Howell].wav

Pre-gap length 0:00:02.01

Peak level 84.0 %
Track quality 100.0 %
Test CRC 9C5F4B6D
Copy CRC 9C5F4B6D
Copy OK

Track 13

Filename j:\flac\Various\Atlanta Blues - CD 3\13 - Doin' Wrong [Peg Leg Howell].wav

Pre-gap length 0:00:02.01

Peak level 91.2 %
Track quality 100.0 %
Test CRC F11BAD6B
Copy CRC F11BAD6B
Copy OK

Track 14

Filename j:\flac\Various\Atlanta Blues - CD 3\14 - Skin Game Blues [Peg Leg Howell].wav

Pre-gap length 0:00:02.01

Peak level 84.0 %
Track quality 100.0 %
Test CRC 00F6FC24
Copy CRC 00F6FC24
Copy OK

Track 15

Filename j:\flac\Various\Atlanta Blues - CD 3\15 - Please, Ma'am [Peg Leg Howell].wav

Pre-gap length 0:00:02.01

Peak level 84.0 %
Track quality 100.0 %
Test CRC 4A76312D
Copy CRC 4A76312D
Copy OK

Track 16

Filename j:\flac\Various\Atlanta Blues - CD 3\16 - Rock & Gravel Blues [Peg Leg Howell].wav

Pre-gap length 0:00:02.01

Peak level 83.9 %
Track quality 100.0 %
Test CRC 98696E58
Copy CRC 98696E58
Copy OK

Track 17

Filename j:\flac\Various\Atlanta Blues - CD 3\17 - Low-Down Rounder Blues [Peg Leg Howell].wav

Pre-gap length 0:00:02.01

Peak level 94.2 %
Track quality 100.0 %
Test CRC 0D5FA94D
Copy CRC 0D5FA94D
Copy OK

Track 18

Filename j:\flac\Various\Atlanta Blues - CD 3\18 - Fairy Blues [Peg Leg Howell].wav

Pre-gap length 0:00:02.01

Peak level 89.0 %
Track quality 100.0 %
Test CRC 7808986F
Copy CRC 7808986F
Copy OK

Track 19

Filename j:\flac\Various\Atlanta Blues - CD 3\19 - Banjo Blues [Peg Leg Howell].wav

Pre-gap length 0:00:02.01

Peak level 84.0 %
Track quality 100.0 %
Test CRC 19404F2F
Copy CRC 19404F2F
Copy OK

Track 20

Filename j:\flac\Various\Atlanta Blues - CD 3\20 - Turkey Buzzard Blues [Peg Leg Howell].wav

Pre-gap length 0:00:02.01

Peak level 94.2 %
Track quality 100.0 %
Test CRC 2518172B
Copy CRC 2518172B
Copy OK

Track 21

Filename j:\flac\Various\Atlanta Blues - CD 3\21 - Turtle Dove Blues [Peg Leg Howell].wav

Pre-gap length 0:00:02.01

Peak level 84.0 %
Track quality 99.9 %
Test CRC 16456BD2
Copy CRC 16456BD2
Copy OK

Track 22

Filename j:\flac\Various\Atlanta Blues - CD 3\22 - Walkin' Blues [Peg Leg Howell].wav

Pre-gap length 0:00:02.01

Peak level 94.2 %
Track quality 100.0 %
Test CRC 85A0959F
Copy CRC 85A0959F
Copy OK

Track 23

Filename j:\flac\Various\Atlanta Blues - CD 3\23 - Broke & Hungry Blues [Peg Leg Howell].wav

Pre-gap length 0:00:02.01

Peak level 84.0 %
Track quality 100.0 %
Test CRC FCE0C9AA
Copy CRC FCE0C9AA
Copy OK

Track 24

Filename j:\flac\Various\Atlanta Blues - CD 3\24 - Rolling Mill Blues [Peg Leg Howell].wav

Pre-gap length 0:00:02.01

Peak level 74.8 %
Track quality 100.0 %
Test CRC E3D06DFD
Copy CRC E3D06DFD
Copy OK

Track 25

Filename j:\flac\Various\Atlanta Blues - CD 3\25 - Ball & Chain Blues [Peg Leg Howell].wav

Pre-gap length 0:00:02.01

Peak level 74.9 %
Track quality 100.0 %
Test CRC 92F52D04
Copy CRC 92F52D04
Copy OK

No errors occurred

End of status report


[CUETools log; Date: 22.02.2018 16:15:40; Version: 2.1.5]
[AccurateRip ID: 0048105f-050dfbbf-9112b519] found.
Track [ CRC | V2 ] Status
01 [514a6c47|1c633aec] (0+0/1) No match
02 [f7f917d2|96f410cc] (0+0/1) No match
03 [06fac1b4|5ae410cb] (0+0/1) No match
04 [ffab8bf4|12926b00] (0+0/1) No match
05 [59807416|cafebf19] (0+0/1) No match
06 [6e333e50|bacf22f3] (0+0/1) No match
07 [51a55918|1b12958a] (0+0/1) No match
08 [03eba48a|65f0912a] (0+0/1) No match
09 [50124494|ce9bac40] (0+0/1) No match
10 [229e780e|17738d30] (0+0/1) No match
11 [0b7d78f3|80a549d5] (0+0/1) No match
12 [7ee9a8a3|3c02ed47] (0+0/1) No match
13 [a845fc82|eadc51c5] (0+0/1) No match
14 [1fa64f62|483242e4] (0+0/1) No match
15 [ab0248d5|cf959a7b] (0+0/1) No match
16 [1ddc7b39|a79b498f] (0+0/1) No match
17 [89fcf5d8|89ccb21f] (0+0/1) No match
18 [f13e912e|bfa51019] (0+0/1) No match
19 [3bfca2b9|0168198e] (0+0/1) No match
20 [951f8979|0a51f4b5] (0+0/1) No match
21 [dac0bd2b|207dd7f8] (0+0/1) No match
22 [8b3772b3|087f4510] (0+0/1) No match
23 [8f0157c1|98f20c9a] (0+0/1) No match
24 [53c52fc5|2283abf3] (0+0/1) No match
25 [deefa1e0|40ad9974] (0+0/1) No match
Offsetted by -18:
01 [ab8171fd] (1/1) Accurately ripped
02 [bd8d03da] (0/1) No match
03 [30c2dab4] (0/1) No match
04 [e7f7565a] (0/1) No match
05 [a43c11d6] (0/1) No match
06 [64c4fbea] (0/1) No match
07 [720d13da] (0/1) No match
08 [85b78892] (0/1) No match
09 [3a032f1e] (0/1) No match
10 [818ec570] (0/1) No match
11 [740b4289] (0/1) No match
12 [b5568c3f] (0/1) No match
13 [37003526] (0/1) No match
14 [c83620ae] (0/1) No match
15 [a4f065af] (0/1) No match
16 [bd693b39] (0/1) No match
17 [0cf04b48] (0/1) No match
18 [5954ae5a] (0/1) No match
19 [a85c8de7] (0/1) No match
20 [c9fc420d] (0/1) No match
21 [663100ed] (0/1) No match
22 [b6055005] (0/1) No match
23 [94d0babb] (0/1) No match
24 [dd465929] (0/1) No match
25 [a4a86dc8] (0/1) No match
Offsetted by -7:
01 [8298b59c] (0/1) No match
02 [44cf100e] (1/1) Accurately ripped
03 [a5733d34] (0/1) No match
04 [683acc71] (0/1) No match
05 [6857a336] (0/1) No match
06 [dc4f79d3] (0/1) No match
07 [97230547] (0/1) No match
08 [d2d760c6] (0/1) No match
09 [63eff51f] (0/1) No match
10 [55c307ed] (0/1) No match
11 [425f4758] (0/1) No match
12 [224ce4b5] (0/1) No match
13 [c3558450] (0/1) No match
14 [ef6c761c] (0/1) No match
15 [a8a5feb8] (0/1) No match
16 [14cc1b39] (0/1) No match
17 [e7947aa0] (0/1) No match
18 [362ab8f8] (0/1) No match
19 [0293b712] (0/1) No match
20 [f0cab4cf] (0/1) No match
21 [c9de2cda] (0/1) No match
22 [384e9e1a] (0/1) No match
23 [4a275394] (0/1) No match
24 [42221533] (0/1) No match
25 [2bd3f12c] (0/1) No match
Offsetted by 4:
01 [59aff93b] (0/1) No match
02 [cc111c42] (0/1) No match
03 [1a239fb4] (1/1) Accurately ripped
04 [e87e4288] (0/1) No match
05 [2c733496] (0/1) No match
06 [53d9f7bc] (0/1) No match
07 [bc38f6b4] (0/1) No match
08 [1ff738fa] (0/1) No match
09 [8ddcbb20] (0/1) No match
10 [29f74a6a] (0/1) No match
11 [10b34c27] (0/1) No match
12 [8f433d2b] (0/1) No match
13 [4faad37a] (0/1) No match
14 [16a2cb8a] (0/1) No match
15 [ac5b97c1] (0/1) No match
16 [6c2efb39] (0/1) No match
17 [c238a9f8] (0/1) No match
18 [1300c396] (0/1) No match
19 [5ccae03d] (0/1) No match
20 [17992791] (0/1) No match
21 [2d8b58c7] (0/1) No match
22 [ba97ec2f] (0/1) No match
23 [ff7dec6d] (0/1) No match
24 [a6fdd13d] (0/1) No match
25 [b2ff7490] (0/1) No match
Offsetted by 15:
01 [30c73cda] (0/1) No match
02 [53532876] (0/1) No match
03 [8ed40234] (0/1) No match
04 [68c1b89f] (1/1) Accurately ripped
05 [f08ec5f6] (0/1) No match
06 [cb6475a5] (0/1) No match
07 [e14ee821] (0/1) No match
08 [6d17112e] (0/1) No match
09 [b7c98121] (0/1) No match
10 [fe2b8ce7] (0/1) No match
11 [df0750f6] (0/1) No match
12 [fc3995a1] (0/1) No match
13 [dc0022a4] (0/1) No match
14 [3dd920f8] (0/1) No match
15 [b01130ca] (0/1) No match
16 [c391db39] (0/1) No match
17 [9cdcd950] (0/1) No match
18 [efd6ce34] (0/1) No match
19 [b7020968] (0/1) No match
20 [3e679a53] (0/1) No match
21 [913884b4] (0/1) No match
22 [3ce13a44] (0/1) No match
23 [b4d48546] (0/1) No match
24 [0bd98d47] (0/1) No match
25 [3a2af7f4] (0/1) No match
Offsetted by 26:
01 [07de8079] (0/1) No match
02 [da9534aa] (0/1) No match
03 [038464b4] (0/1) No match
04 [e9052eb6] (0/1) No match
05 [b4aa5756] (1/1) Accurately ripped
06 [42eef38e] (0/1) No match
07 [0664d98e] (0/1) No match
08 [ba36e962] (0/1) No match
09 [e1b64722] (0/1) No match
10 [d25fcf64] (0/1) No match
11 [ad5b55c5] (0/1) No match
12 [692fee17] (0/1) No match
13 [685571ce] (0/1) No match
14 [650f7666] (0/1) No match
15 [b3c6c9d3] (0/1) No match
16 [1af4bb39] (0/1) No match
17 [778108a8] (0/1) No match
18 [ccacd8d2] (0/1) No match
19 [11393293] (0/1) No match
20 [65360d15] (0/1) No match
21 [f4e5b0a1] (0/1) No match
22 [bf2a8859] (0/1) No match
23 [6a2b1e1f] (0/1) No match
24 [70b54951] (0/1) No match
25 [c1567b58] (0/1) No match
Offsetted by 37:
01 [def5c418] (0/1) No match
02 [61d740de] (0/1) No match
03 [7834c734] (0/1) No match
04 [6948a4cd] (0/1) No match
05 [78c5e8b6] (0/1) No match
06 [ba797177] (1/1) Accurately ripped
07 [2b7acafb] (0/1) No match
08 [0756c196] (0/1) No match
09 [0ba30d23] (0/1) No match
10 [a69411e1] (0/1) No match
11 [7baf5a94] (0/1) No match
12 [d626468d] (0/1) No match
13 [f4aac0f8] (0/1) No match
14 [8c45cbd4] (0/1) No match
15 [b77c62dc] (0/1) No match
16 [72579b39] (0/1) No match
17 [52253800] (0/1) No match
18 [a982e370] (0/1) No match
19 [6b705bbe] (0/1) No match
20 [8c047fd7] (0/1) No match
21 [5892dc8e] (0/1) No match
22 [4173d66e] (0/1) No match
23 [1f81b6f8] (0/1) No match
24 [d591055b] (0/1) No match
25 [4881febc] (0/1) No match
Offsetted by 48:
01 [b60d07b7] (0/1) No match
02 [e9194d12] (0/1) No match
03 [ece529b4] (0/1) No match
04 [e98c1ae4] (0/1) No match
05 [3ce17a16] (0/1) No match
06 [3203ef60] (0/1) No match
07 [5090bc68] (1/1) Accurately ripped
08 [547699ca] (0/1) No match
09 [358fd324] (0/1) No match
10 [7ac8545e] (0/1) No match
11 [4a035f63] (0/1) No match
12 [431c9f03] (0/1) No match
13 [81001022] (0/1) No match
14 [b37c2142] (0/1) No match
15 [bb31fbe5] (0/1) No match
16 [c9ba7b39] (0/1) No match
17 [2cc96758] (0/1) No match
18 [8658ee0e] (0/1) No match
19 [c5a784e9] (0/1) No match
20 [b2d2f299] (0/1) No match
21 [bc40087b] (0/1) No match
22 [c3bd2483] (0/1) No match
23 [d4d84fd1] (0/1) No match
24 [3a6cc165] (0/1) No match
25 [cfad8220] (0/1) No match
Offsetted by 59:
01 [8d244b56] (0/1) No match
02 [705b5946] (0/1) No match
03 [61958c34] (0/1) No match
04 [69cf90fb] (0/1) No match
05 [00fd0b76] (0/1) No match
06 [a98e6d49] (0/1) No match
07 [75a6add5] (0/1) No match
08 [a19671fe] (1/1) Accurately ripped
09 [5f7c9925] (0/1) No match
10 [4efc96db] (0/1) No match
11 [18576432] (0/1) No match
12 [b012f779] (0/1) No match
13 [0d555f4c] (0/1) No match
14 [dab276b0] (0/1) No match
15 [bee794ee] (0/1) No match
16 [211d5b39] (0/1) No match
17 [076d96b0] (0/1) No match
18 [632ef8ac] (0/1) No match
19 [1fdeae14] (0/1) No match
20 [d9a1655b] (0/1) No match
21 [1fed3468] (0/1) No match
22 [46067298] (0/1) No match
23 [8a2ee8aa] (0/1) No match
24 [9f487d6f] (0/1) No match
25 [56d90584] (0/1) No match
Offsetted by 70:
01 [643b8ef5] (0/1) No match
02 [f79d657a] (0/1) No match
03 [d645eeb4] (0/1) No match
04 [ea130712] (0/1) No match
05 [c5189cd6] (0/1) No match
06 [2118eb32] (0/1) No match
07 [9abc9f42] (0/1) No match
08 [eeb64a32] (0/1) No match
09 [89695f26] (1/1) Accurately ripped
10 [2330d958] (0/1) No match
11 [e6ab6901] (0/1) No match
12 [1d094fef] (0/1) No match
13 [99aaae76] (0/1) No match
14 [01e8cc1e] (0/1) No match
15 [c29d2df7] (0/1) No match
16 [78803b39] (0/1) No match
17 [e211c608] (0/1) No match
18 [4005034a] (0/1) No match
19 [7a15d73f] (0/1) No match
20 [006fd81d] (0/1) No match
21 [839a6055] (0/1) No match
22 [c84fc0ad] (0/1) No match
23 [3f858183] (0/1) No match
24 [04243979] (0/1) No match
25 [de0488e8] (0/1) No match
Offsetted by 81:
01 [3b52d294] (0/1) No match
02 [7edf71ae] (0/1) No match
03 [4af65134] (0/1) No match
04 [6a567d29] (0/1) No match
05 [89342e36] (0/1) No match
06 [98a3691b] (0/1) No match
07 [bfd290af] (0/1) No match
08 [3bd62266] (0/1) No match
09 [b3562527] (0/1) No match
10 [f7651bd5] (1/1) Accurately ripped
11 [b4ff6dd0] (0/1) No match
12 [89ffa865] (0/1) No match
13 [25fffda0] (0/1) No match
14 [291f218c] (0/1) No match
15 [c652c700] (0/1) No match
16 [cfe31b39] (0/1) No match
17 [bcb5f560] (0/1) No match
18 [1cdb0de8] (0/1) No match
19 [d44d006a] (0/1) No match
20 [273e4adf] (0/1) No match
21 [e7478c42] (0/1) No match
22 [4a990ec2] (0/1) No match
23 [f4dc1a5c] (0/1) No match
24 [68fff583] (0/1) No match
25 [65300c4c] (0/1) No match
Offsetted by 92:
01 [126a1633] (0/1) No match
02 [06217de2] (0/1) No match
03 [bfa6b3b4] (0/1) No match
04 [ea99f340] (0/1) No match
05 [4d4fbf96] (0/1) No match
06 [102de704] (0/1) No match
07 [e4e8821c] (0/1) No match
08 [88f5fa9a] (0/1) No match
09 [dd42eb28] (0/1) No match
10 [cb995e52] (0/1) No match
11 [8353729f] (1/1) Accurately ripped
12 [f6f600db] (0/1) No match
13 [b2554cca] (0/1) No match
14 [505576fa] (0/1) No match
15 [ca086009] (0/1) No match
16 [2745fb39] (0/1) No match
17 [975a24b8] (0/1) No match
18 [f9b11886] (0/1) No match
19 [2e842995] (0/1) No match
20 [4e0cbda1] (0/1) No match
21 [4af4b82f] (0/1) No match
22 [cce25cd7] (0/1) No match
23 [aa32b335] (0/1) No match
24 [cddbb18d] (0/1) No match
25 [ec5b8fb0] (0/1) No match
Offsetted by 103:
01 [e98159d2] (0/1) No match
02 [8d638a16] (0/1) No match
03 [34571634] (0/1) No match
04 [6add6957] (0/1) No match
05 [116b50f6] (0/1) No match
06 [87b864ed] (0/1) No match
07 [09fe7389] (0/1) No match
08 [d615d2ce] (0/1) No match
09 [072fb129] (0/1) No match
10 [9fcda0cf] (0/1) No match
11 [51a7776e] (0/1) No match
12 [63ec5951] (1/1) Accurately ripped
13 [3eaa9bf4] (0/1) No match
14 [778bcc68] (0/1) No match
15 [cdbdf912] (0/1) No match
16 [7ea8db39] (0/1) No match
17 [71fe5410] (0/1) No match
18 [d6872324] (0/1) No match
19 [88bb52c0] (0/1) No match
20 [74db3063] (0/1) No match
21 [aea1e41c] (0/1) No match
22 [4f2baaec] (0/1) No match
23 [5f894c0e] (0/1) No match
24 [32b76d97] (0/1) No match
25 [73871314] (0/1) No match
Offsetted by 114:
01 [c0989d71] (0/1) No match
02 [14a5964a] (0/1) No match
03 [a90778b4] (0/1) No match
04 [eb20df6e] (0/1) No match
05 [d586e256] (0/1) No match
06 [ff42e2d6] (0/1) No match
07 [2f1464f6] (0/1) No match
08 [2335ab02] (0/1) No match
09 [311c772a] (0/1) No match
10 [7401e34c] (0/1) No match
11 [1ffb7c3d] (0/1) No match
12 [d0e2b1c7] (0/1) No match
13 [caffeb1e] (1/1) Accurately ripped
14 [9ec221d6] (0/1) No match
15 [d173921b] (0/1) No match
16 [d60bbb39] (0/1) No match
17 [4ca28368] (0/1) No match
18 [b35d2dc2] (0/1) No match
19 [e2f27beb] (0/1) No match
20 [9ba9a325] (0/1) No match
21 [124f1009] (0/1) No match
22 [d174f901] (0/1) No match
23 [14dfe4e7] (0/1) No match
24 [979329a1] (0/1) No match
25 [fab29678] (0/1) No match
Offsetted by 125:
01 [97afe110] (0/1) No match
02 [9be7a27e] (0/1) No match
03 [1db7db34] (0/1) No match
04 [6b645585] (0/1) No match
05 [99a273b6] (0/1) No match
06 [76cd60bf] (0/1) No match
07 [542a5663] (0/1) No match
08 [70558336] (0/1) No match
09 [5b093d2b] (0/1) No match
10 [483625c9] (0/1) No match
11 [ee4f810c] (0/1) No match
12 [3dd90a3d] (0/1) No match
13 [57553a48] (0/1) No match
14 [c5f87744] (1/1) Accurately ripped
15 [d5292b24] (0/1) No match
16 [2d6e9b39] (0/1) No match
17 [2746b2c0] (0/1) No match
18 [90333860] (0/1) No match
19 [3d29a516] (0/1) No match
20 [c27815e7] (0/1) No match
21 [75fc3bf6] (0/1) No match
22 [53be4716] (0/1) No match
23 [ca367dc0] (0/1) No match
24 [fc6ee5ab] (0/1) No match
25 [81de19dc] (0/1) No match
Offsetted by 136:
01 [6ec724af] (0/1) No match
02 [2329aeb2] (0/1) No match
03 [92683db4] (0/1) No match
04 [eba7cb9c] (0/1) No match
05 [5dbe0516] (0/1) No match
06 [ee57dea8] (0/1) No match
07 [794047d0] (0/1) No match
08 [bd755b6a] (0/1) No match
09 [84f6032c] (0/1) No match
10 [1c6a6846] (0/1) No match
11 [bca385db] (0/1) No match
12 [aacf62b3] (0/1) No match
13 [e3aa8972] (0/1) No match
14 [ed2eccb2] (0/1) No match
15 [d8dec42d] (1/1) Accurately ripped
16 [84d17b39] (0/1) No match
17 [01eae218] (0/1) No match
18 [6d0942fe] (0/1) No match
19 [9760ce41] (0/1) No match
20 [e94688a9] (0/1) No match
21 [d9a967e3] (0/1) No match
22 [d607952b] (0/1) No match
23 [7f8d1699] (0/1) No match
24 [614aa1b5] (0/1) No match
25 [09099d40] (0/1) No match
Offsetted by 147:
01 [45de684e] (0/1) No match
02 [aa6bbae6] (0/1) No match
03 [0718a034] (0/1) No match
04 [6beb41b3] (0/1) No match
05 [21d99676] (0/1) No match
06 [65e25c91] (0/1) No match
07 [9e56393d] (0/1) No match
08 [0a95339e] (0/1) No match
09 [aee2c92d] (0/1) No match
10 [f09eaac3] (0/1) No match
11 [8af78aaa] (0/1) No match
12 [17c5bb29] (0/1) No match
13 [6fffd89c] (0/1) No match
14 [14652220] (0/1) No match
15 [dc945d36] (0/1) No match
16 [dc345b39] (1/1) Accurately ripped
17 [dc8f1170] (0/1) No match
18 [49df4d9c] (0/1) No match
19 [f197f76c] (0/1) No match
20 [1014fb6b] (0/1) No match
21 [3d5693d0] (0/1) No match
22 [5850e340] (0/1) No match
23 [34e3af72] (0/1) No match
24 [c6265dbf] (0/1) No match
25 [903520a4] (0/1) No match
Offsetted by 158:
01 [1cf5abed] (0/1) No match
02 [31adc71a] (0/1) No match
03 [7bc902b4] (0/1) No match
04 [ec2eb7ca] (0/1) No match
05 [e5f527d6] (0/1) No match
06 [dd6cda7a] (0/1) No match
07 [c36c2aaa] (0/1) No match
08 [57b50bd2] (0/1) No match
09 [d8cf8f2e] (0/1) No match
10 [c4d2ed40] (0/1) No match
11 [594b8f79] (0/1) No match
12 [84bc139f] (0/1) No match
13 [fc5527c6] (0/1) No match
14 [3b9b778e] (0/1) No match
15 [e049f63f] (0/1) No match
16 [33973b39] (0/1) No match
17 [b73340c8] (1/1) Accurately ripped
18 [26b5583a] (0/1) No match
19 [4bcf2097] (0/1) No match
20 [36e36e2d] (0/1) No match
21 [a103bfbd] (0/1) No match
22 [da9a3155] (0/1) No match
23 [ea3a484b] (0/1) No match
24 [2b0219c9] (0/1) No match
25 [1760a408] (0/1) No match
More than 16 offsets match!

Track Peak [ CRC32 ] [W/O NULL] [ LOG ]
– 94,2 [C7EDA822] [EBEC554E]
01 88,3 [9D05CDA3] [F6E2656E] CRC32
02 84,0 [F9FB1EEC] [A4B2B8CD] CRC32
03 94,2 [01CA27B0] [8D479F47] CRC32
04 93,2 [083AC694] [EB5A3AC8] CRC32
05 92,1 [6480763C] [4987E74F] CRC32
06 94,2 [1E5CA999] [CC86E355] CRC32
07 86,2 [24E6DA38] [72D6E02F] CRC32
08 84,0 [AFB6EDBB] [B3DE7EFE] CRC32
09 84,0 [BDF5EE1F] [91BF6B44] CRC32
10 90,1 [1CA6949A] [C36EB67E] CRC32
11 87,3 [614992BE] [32A0601A] CRC32
12 84,0 [9C5F4B6D] [7EFDF908] CRC32
13 91,2 [F11BAD6B] [6802A09A] CRC32
14 84,0 [00F6FC24] [EE902796] CRC32
15 84,0 [4A76312D] [8C1F39BF] CRC32
16 83,9 [98696E58] [CCAB6FB7] CRC32
17 94,2 [0D5FA94D] [A05F3CA4] CRC32
18 89,0 [7808986F] [CB06F54E] CRC32
19 84,0 [19404F2F] [FE485D94] CRC32
20 94,2 [2518172B] [3E18022F] CRC32
21 84,0 [16456BD2] [8E158EC8] CRC32
22 94,2 [85A0959F] [D1A8E60D] CRC32
23 84,0 [FCE0C9AA] [0308C982] CRC32
24 74,8 [E3D06DFD] [2C77D450] CRC32
25 74,9 [92F52D04] [E4EEC872] CRC32


VA - Atlanta Blues: Big City Blues From The Heartland (2005) [4CD Box Set] Repost

Tracklist CD4:

01. Peg Leg Howell - Monkey Man Blues (2:59)
02. Peg Leg Howell - Chittlin' Supper (2:55)
03. Peg Leg Howell - Away from Home (2:56)
04. Henry Williams & Eddie Anthony - Georgia Crawl (3:25)
05. Henry Williams & Eddie Anthony - Lonesome Blues (2:55)
06. Macon Ed & Tampa Joe - Winging That Thing (3:12)
07. Macon Ed & Tampa Joe - Worrying Blues (3:11)
08. Macon Ed & Tampa Joe - Everything's Coming My Way (3:02)
09. Macon Ed & Tampa Joe - Mean Florida Blues (3:12)
10. Macon Ed & Tampa Joe - Try That Thing (3:19)
11. Macon Ed & Tampa Joe - Tickle Britches (3:12)
12. Macon Ed & Tampa Joe - Tantalizing Bootblack (3:08)
13. Macon Ed & Tampa Joe - Warm Wipe Stomp (3:16)
14. 'Sloppy' Henry - Canned Heat Blues (2:56)
15. 'Sloppy' Henry - Say I Do It (2:44)
16. 'Sloppy' Henry - Long, Tall, Disconnected Mama (3:10)
17. 'Sloppy' Henry - Royal Palm Special Blues (3:08)
18. Lil McClintock - Furniture Man (3:34)
19. Lil McClintock - Don't Think I'm Santa Claus (3:14)
20. Lil McClintock - Sow Good Seeds (3:18)
21. Lil McClintock - Mother Called Her Child to Her Dying Bed (3:12)
22. Lillie Mae - Buggy Jail House Blues (2:42)
23. Lillie Mae - Wise Like That (3:07)
24. Lillie Mae - Mama Don't Want It (2:55)
25. Lillie Mae - Bootie Wah Bottie (3:18)

Converted to Image (CUETools 2.1.4)

Exact Audio Copy V0.99 prebeta 4 from 23. January 2008

EAC extraction logfile from 22. November 2008, 12:37

Various Artists / Atlanta Blues - CD 4

Used drive : MATSHITADVD-RAM LF-P567 Adapter: 3 ID: 0

Read mode : Secure
Utilize accurate stream : Yes
Defeat audio cache : Yes
Make use of C2 pointers : No

Read offset correction : 102
Overread into Lead-In and Lead-Out : No
Fill up missing offset samples with silence : Yes
Delete leading and trailing silent blocks : No
Null samples used in CRC calculations : Yes
Used interface : Native Win32 interface for Win NT & 2000
Gap handling : Appended to previous track

Used output format : User Defined Encoder
Selected bitrate : 192 kBit/s
Quality : High
Add ID3 tag : Yes
Command line compressor : C:\Program Files\Exact Audio Copy\FLAC\flac.exe
Additional command line options : -8 -A tukey(0.25) -A gauss(0.1875) -b 4096 -V -T "artist=%a" -T "title=%t" -T "album=%g" -T "date=%y" -T "tracknumber=%n" -T "genre=%m" %s –sector-align


TOC of the extracted CD

Track | Start | Length | Start sector | End sector
––––––––––––––––––––––––––––-
1 | 0:00.00 | 2:59.01 | 0 | 13425
2 | 2:59.01 | 2:55.08 | 13426 | 26558
3 | 5:54.09 | 2:55.74 | 26559 | 39757
4 | 8:50.08 | 3:25.00 | 39758 | 55132
5 | 12:15.08 | 2:55.13 | 55133 | 68270
6 | 15:10.21 | 3:12.07 | 68271 | 82677
7 | 18:22.28 | 3:11.09 | 82678 | 97011
8 | 21:33.37 | 3:01.56 | 97012 | 110642
9 | 24:35.18 | 3:11.65 | 110643 | 125032
10 | 27:47.08 | 3:19.18 | 125033 | 139975
11 | 31:06.26 | 3:12.06 | 139976 | 154381
12 | 34:18.32 | 3:07.70 | 154382 | 168476
13 | 37:26.27 | 3:16.14 | 168477 | 183190
14 | 40:42.41 | 2:56.29 | 183191 | 196419
15 | 43:38.70 | 2:44.18 | 196420 | 208737
16 | 46:23.13 | 3:10.02 | 208738 | 222989
17 | 49:33.15 | 3:07.43 | 222990 | 237057
18 | 52:40.58 | 3:34.17 | 237058 | 253124
19 | 56:15.00 | 3:13.46 | 253125 | 267645
20 | 59:28.46 | 3:18.17 | 267646 | 282512
21 | 62:46.63 | 3:11.56 | 282513 | 296893
22 | 65:58.44 | 2:42.04 | 296894 | 309047
23 | 68:40.48 | 3:06.38 | 309048 | 323035
24 | 71:47.11 | 2:54.58 | 323036 | 336143
25 | 74:41.69 | 3:17.67 | 336144 | 350985


Track 1

Filename j:\flac\Various\Atlanta Blues - CD 4\01 - Monkey Man Blues [Peg Leg Howell].wav

Pre-gap length 0:00:02.00

Peak level 94.3 %
Track quality 100.0 %
Test CRC E952A8B0
Copy CRC E952A8B0
Copy OK

Track 2

Filename j:\flac\Various\Atlanta Blues - CD 4\02 - Chittlin' Supper [Peg Leg Howell].wav

Pre-gap length 0:00:02.41

Peak level 94.3 %
Track quality 100.0 %
Test CRC 0E54CF87
Copy CRC 0E54CF87
Copy OK

Track 3

Filename j:\flac\Various\Atlanta Blues - CD 4\03 - Away from Home [Peg Leg Howell].wav

Pre-gap length 0:00:02.41

Peak level 75.9 %
Track quality 99.9 %
Test CRC E9AB2CA4
Copy CRC E9AB2CA4
Copy OK

Track 4

Filename j:\flac\Various\Atlanta Blues - CD 4\04 - Georgia Crawl [Henry Williams & Eddie Anthony].wav

Pre-gap length 0:00:02.41

Peak level 94.3 %
Track quality 100.0 %
Test CRC 8403547D
Copy CRC 8403547D
Copy OK

Track 5

Filename j:\flac\Various\Atlanta Blues - CD 4\05 - Lonesome Blues [Henry Williams & Eddie Anthony].wav

Pre-gap length 0:00:02.41

Peak level 94.3 %
Track quality 100.0 %
Test CRC 7F30D567
Copy CRC 7F30D567
Copy OK

Track 6

Filename j:\flac\Various\Atlanta Blues - CD 4\06 - Winging That Thing [Macon Ed & Tampa Joe].wav

Pre-gap length 0:00:02.41

Peak level 89.0 %
Track quality 100.0 %
Test CRC 0D26B8BD
Copy CRC 0D26B8BD
Copy OK

Track 7

Filename j:\flac\Various\Atlanta Blues - CD 4\07 - Worrying Blues [Macon Ed & Tampa Joe].wav

Pre-gap length 0:00:02.41

Peak level 93.8 %
Track quality 100.0 %
Test CRC 80445E40
Copy CRC 80445E40
Copy OK

Track 8

Filename j:\flac\Various\Atlanta Blues - CD 4\08 - Everything's Coming My Way [Macon Ed & Tampa Joe].wav

Pre-gap length 0:00:02.41

Peak level 84.9 %
Track quality 100.0 %
Test CRC 9DAF53FE
Copy CRC 9DAF53FE
Copy OK

Track 9

Filename j:\flac\Various\Atlanta Blues - CD 4\09 - Mean Florida Blues [Macon Ed & Tampa Joe].wav

Pre-gap length 0:00:02.41

Peak level 89.6 %
Track quality 100.0 %
Test CRC 135807A6
Copy CRC 135807A6
Copy OK

Track 10

Filename j:\flac\Various\Atlanta Blues - CD 4\10 - Try That Thing [Macon Ed & Tampa Joe].wav

Pre-gap length 0:00:02.41

Peak level 93.0 %
Track quality 99.9 %
Test CRC FF5C00CB
Copy CRC FF5C00CB
Copy OK

Track 11

Filename j:\flac\Various\Atlanta Blues - CD 4\11 - Tickle Britches [Macon Ed & Tampa Joe].wav

Pre-gap length 0:00:02.41

Peak level 94.3 %
Track quality 100.0 %
Test CRC FE928A5A
Copy CRC FE928A5A
Copy OK

Track 12

Filename j:\flac\Various\Atlanta Blues - CD 4\12 - Tantalizing Bootblack [Macon Ed & Tampa Joe].wav

Pre-gap length 0:00:02.41

Peak level 79.9 %
Track quality 99.9 %
Test CRC 6E90B9C6
Copy CRC 6E90B9C6
Copy OK

Track 13

Filename j:\flac\Various\Atlanta Blues - CD 4\13 - Warm Wipe Stomp [Macon Ed & Tampa Joe].wav

Pre-gap length 0:00:02.41

Peak level 94.3 %
Track quality 100.0 %
Test CRC BBE5462E
Copy CRC BBE5462E
Copy OK

Track 14

Filename j:\flac\Various\Atlanta Blues - CD 4\14 - Canned Heat Blues ['Sloppy' Henry].wav

Pre-gap length 0:00:02.41

Peak level 84.0 %
Track quality 100.0 %
Test CRC 89C305B5
Copy CRC 89C305B5
Copy OK

Track 15

Filename j:\flac\Various\Atlanta Blues - CD 4\15 - Say I Do It ['Sloppy' Henry].wav

Pre-gap length 0:00:02.41

Peak level 89.0 %
Track quality 100.0 %
Test CRC BCE2F87C
Copy CRC BCE2F87C
Copy OK

Track 16

Filename j:\flac\Various\Atlanta Blues - CD 4\16 - Long, Tall, Disconnected Mama ['Sloppy' Henry].wav

Pre-gap length 0:00:02.41

Peak level 90.5 %
Track quality 100.0 %
Test CRC 5E99DE96
Copy CRC 5E99DE96
Copy OK

Track 17

Filename j:\flac\Various\Atlanta Blues - CD 4\17 - Royal Palm Special Blues ['Sloppy' Henry].wav

Pre-gap length 0:00:02.41

Peak level 82.3 %
Track quality 100.0 %
Test CRC 534A1D08
Copy CRC 534A1D08
Copy OK

Track 18

Filename j:\flac\Various\Atlanta Blues - CD 4\18 - Furniture Man [Lil McClintock].wav

Pre-gap length 0:00:02.41

Peak level 88.9 %
Track quality 100.0 %
Test CRC 5DB892E1
Copy CRC 5DB892E1
Copy OK

Track 19

Filename j:\flac\Various\Atlanta Blues - CD 4\19 - Don't Think I'm Santa Claus [Lil McClintock].wav

Pre-gap length 0:00:02.41

Peak level 94.3 %
Track quality 99.9 %
Test CRC FE0CADB4
Copy CRC FE0CADB4
Copy OK

Track 20

Filename j:\flac\Various\Atlanta Blues - CD 4\20 - Sow Good Seeds [Lil McClintock].wav

Pre-gap length 0:00:02.41

Peak level 92.1 %
Track quality 99.9 %
Test CRC E3403EF0
Copy CRC E3403EF0
Copy OK

Track 21

Filename j:\flac\Various\Atlanta Blues - CD 4\21 - Mother Called Her Child to Her Dying Bed [Lil McClintock].wav

Pre-gap length 0:00:02.41

Peak level 84.0 %
Track quality 100.0 %
Test CRC EBE32B91
Copy CRC EBE32B91
Copy OK

Track 22

Filename j:\flac\Various\Atlanta Blues - CD 4\22 - Buggy Jail House Blues [Lillie Mae].wav

Pre-gap length 0:00:02.41

Peak level 74.9 %
Track quality 99.9 %
Test CRC 050D2D0E
Copy CRC 050D2D0E
Copy OK

Track 23

Filename j:\flac\Various\Atlanta Blues - CD 4\23 - Wise Like That [Lillie Mae].wav

Pre-gap length 0:00:02.41

Peak level 94.3 %
Track quality 100.0 %
Test CRC 1538C075
Copy CRC 1538C075
Copy OK

Track 24

Filename j:\flac\Various\Atlanta Blues - CD 4\24 - Mama Don't Want It [Lillie Mae].wav

Pre-gap length 0:00:02.41

Peak level 92.7 %
Track quality 100.0 %
Test CRC EED7E421
Copy CRC EED7E421
Copy OK

Track 25

Filename j:\flac\Various\Atlanta Blues - CD 4\25 - Bootie Wah Bottie [Lillie Mae].wav

Pre-gap length 0:00:02.41

Peak level 86.9 %
Track quality 99.9 %
Test CRC CFE182E2
Copy CRC CFE182E2
Copy OK

No errors occurred

End of status report


[CUETools log; Date: 22.02.2018 16:22:35; Version: 2.1.5]
[AccurateRip ID: 00456a11-04e42299-7b124719] found.
Track [ CRC | V2 ] Status
01 [72f95cc9|74d96425] (0+0/1) No match
02 [39a166f3|d7c8d317] (0+0/1) No match
03 [7cf12437|80c13038] (0+0/1) No match
04 [34981349|ed1de946] (0+0/1) No match
05 [9237e8ae|3ee43e1c] (0+0/1) No match
06 [f6595dca|2ed37170] (0+0/1) No match
07 [4d480469|f6e29054] (0+0/1) No match
08 [09ce64a5|458908af] (0+0/1) No match
09 [acaa3754|eb7f408d] (0+0/1) No match
10 [d725d6c2|bcda9c76] (0+0/1) No match
11 [60503953|bb3007a3] (0+0/1) No match
12 [31c2ca59|e3d48c4a] (0+0/1) No match
13 [72eaab24|b1359264] (0+0/1) No match
14 [8e82dee6|065d9d3f] (0+0/1) No match
15 [8505b953|1bb4c70b] (0+0/1) No match
16 [62f69a02|0e7d0f83] (0+0/1) No match
17 [dc2a1f1e|79585032] (0+0/1) No match
18 [657d1fc1|aec17f41] (0+0/1) No match
19 [803baf28|c2158e16] (0+0/1) No match
20 [4d5d6e7b|9017c709] (0+0/1) No match
21 [c63cd1f9|6334ca1b] (0+0/1) No match
22 [e0eeb054|223f8516] (0+0/1) No match
23 [3ad42094|dae01889] (0+0/1) No match
24 [12259312|8ae6b4f5] (0+0/1) No match
25 [cad74c18|e8210467] (0+0/1) No match
Offsetted by -18:
01 [33bab645] (1/1) Accurately ripped
02 [541bda95] (0/1) No match
03 [6e2f2333] (0/1) No match
04 [a7ad7def] (0/1) No match
05 [abd9fa10] (0/1) No match
06 [c3587e0c] (0/1) No match
07 [7e242f63] (0/1) No match
08 [f5857e25] (0/1) No match
09 [b61f970c] (0/1) No match
10 [cb6bcd20] (0/1) No match
11 [ed89597f] (0/1) No match
12 [e57c3d85] (0/1) No match
13 [1fd10ef4] (0/1) No match
14 [15d74080] (0/1) No match
15 [176fa213] (0/1) No match
16 [2dd1ac52] (0/1) No match
17 [defdf5ea] (0/1) No match
18 [6e32842f] (0/1) No match
19 [dafe629a] (0/1) No match
20 [7fdb5591] (0/1) No match
21 [acd182bb] (0/1) No match
22 [bc124e6a] (0/1) No match
23 [ffc234d4] (0/1) No match
24 [186caca4] (0/1) No match
25 [4b7a8cd6] (0/1) No match
Offsetted by -7:
01 [afb654eb] (0/1) No match
02 [7cd105b2] (1/1) Accurately ripped
03 [a1de9599] (0/1) No match
04 [8c03f5a6] (0/1) No match
05 [aa68b68d] (0/1) No match
06 [a9a02339] (0/1) No match
07 [192bdc3c] (0/1) No match
08 [574043e5] (0/1) No match
09 [5b028738] (0/1) No match
10 [19b2d303] (0/1) No match
11 [de58379d] (0/1) No match
12 [e96e7723] (0/1) No match
13 [7d4443bc] (0/1) No match
14 [a6b1e869] (0/1) No match
15 [134b5af3] (0/1) No match
16 [dc84af5a] (0/1) No match
17 [a4600f18] (0/1) No match
18 [3e35717a] (0/1) No match
19 [6aa3d87f] (0/1) No match
20 [99e3ba20] (0/1) No match
21 [3c5a3328] (0/1) No match
22 [c4601879] (0/1) No match
23 [c04d2874] (0/1) No match
24 [22cf7259] (0/1) No match
25 [e06c1e29] (0/1) No match
Offsetted by 4:
01 [2bb1f391] (0/1) No match
02 [a58630cf] (0/1) No match
03 [d58e07ff] (1/1) Accurately ripped
04 [705a6d5d] (0/1) No match
05 [a8f7730a] (0/1) No match
06 [8fe7c866] (0/1) No match
07 [b4338915] (0/1) No match
08 [b8fb09a5] (0/1) No match
09 [ffe57764] (0/1) No match
10 [67f9d8e6] (0/1) No match
11 [cf2715bb] (0/1) No match
12 [ed60b0c1] (0/1) No match
13 [dab77884] (0/1) No match
14 [378c9052] (0/1) No match
15 [0f2713d3] (0/1) No match
16 [8b37b262] (0/1) No match
17 [69c22846] (0/1) No match
18 [0e385ec5] (0/1) No match
19 [fa494e64] (0/1) No match
20 [b3ec1eaf] (0/1) No match
21 [cbe2e395] (0/1) No match
22 [ccade288] (0/1) No match
23 [80d81c14] (0/1) No match
24 [2d32380e] (0/1) No match
25 [755daf7c] (0/1) No match
Offsetted by 15:
01 [a7ad9237] (0/1) No match
02 [ce3b5bec] (0/1) No match
03 [093d7a65] (0/1) No match
04 [54b0e514] (1/1) Accurately ripped
05 [a7862f87] (0/1) No match
06 [762f6d93] (0/1) No match
07 [4f3b35ee] (0/1) No match
08 [1ab5cf65] (0/1) No match
09 [a4c86790] (0/1) No match
10 [b640dec9] (0/1) No match
11 [bff5f3d9] (0/1) No match
12 [f152ea5f] (0/1) No match
13 [382aad4c] (0/1) No match
14 [c867383b] (0/1) No match
15 [0b02ccb3] (0/1) No match
16 [39eab56a] (0/1) No match
17 [2f244174] (0/1) No match
18 [de3b4c10] (0/1) No match
19 [89eec449] (0/1) No match
20 [cdf4833e] (0/1) No match
21 [5b6b9402] (0/1) No match
22 [d4fbac97] (0/1) No match
23 [41630fb4] (0/1) No match
24 [3794fdc3] (0/1) No match
25 [0a4f40cf] (0/1) No match
Offsetted by 26:
01 [23a930dd] (0/1) No match
02 [f6f08709] (0/1) No match
03 [3cececcb] (0/1) No match
04 [39075ccb] (0/1) No match
05 [a614ec04] (1/1) Accurately ripped
06 [5c7712c0] (0/1) No match
07 [ea42e2c7] (0/1) No match
08 [7c709525] (0/1) No match
09 [49ab57bc] (0/1) No match
10 [0487e4ac] (0/1) No match
11 [b0c4d1f7] (0/1) No match
12 [f54523fd] (0/1) No match
13 [959de214] (0/1) No match
14 [5941e024] (0/1) No match
15 [06de8593] (0/1) No match
16 [e89db872] (0/1) No match
17 [f4865aa2] (0/1) No match
18 [ae3e395b] (0/1) No match
19 [19943a2e] (0/1) No match
20 [e7fce7cd] (0/1) No match
21 [eaf4446f] (0/1) No match
22 [dd4976a6] (0/1) No match
23 [01ee0354] (0/1) No match
24 [41f7c378] (0/1) No match
25 [9f40d222] (0/1) No match
Offsetted by 37:
01 [9fa4cf83] (0/1) No match
02 [1fa5b226] (0/1) No match
03 [709c5f31] (0/1) No match
04 [1d5dd482] (0/1) No match
05 [a4a3a881] (0/1) No match
06 [42beb7ed] (1/1) Accurately ripped
07 [854a8fa0] (0/1) No match
08 [de2b5ae5] (0/1) No match
09 [ee8e47e8] (0/1) No match
10 [52ceea8f] (0/1) No match
11 [a193b015] (0/1) No match
12 [f9375d9b] (0/1) No match
13 [f31116dc] (0/1) No match
14 [ea1c880d] (0/1) No match
15 [02ba3e73] (0/1) No match
16 [9750bb7a] (0/1) No match
17 [b9e873d0] (0/1) No match
18 [7e4126a6] (0/1) No match
19 [a939b013] (0/1) No match
20 [02054c5c] (0/1) No match
21 [7a7cf4dc] (0/1) No match
22 [e59740b5] (0/1) No match
23 [c278f6f4] (0/1) No match
24 [4c5a892d] (0/1) No match
25 [34326375] (0/1) No match
Offsetted by 48:
01 [1ba06e29] (0/1) No match
02 [485add43] (0/1) No match
03 [a44bd197] (0/1) No match
04 [01b44c39] (0/1) No match
05 [a33264fe] (0/1) No match
06 [29065d1a] (0/1) No match
07 [20523c79] (1/1) Accurately ripped
08 [3fe620a5] (0/1) No match
09 [93713814] (0/1) No match
10 [a115f072] (0/1) No match
11 [92628e33] (0/1) No match
12 [fd299739] (0/1) No match
13 [50844ba4] (0/1) No match
14 [7af72ff6] (0/1) No match
15 [fe95f753] (0/1) No match
16 [4603be82] (0/1) No match
17 [7f4a8cfe] (0/1) No match
18 [4e4413f1] (0/1) No match
19 [38df25f8] (0/1) No match
20 [1c0db0eb] (0/1) No match
21 [0a05a549] (0/1) No match
22 [ede50ac4] (0/1) No match
23 [8303ea94] (0/1) No match
24 [56bd4ee2] (0/1) No match
25 [c923f4c8] (0/1) No match
Offsetted by 59:
01 [979c0ccf] (0/1) No match
02 [71100860] (0/1) No match
03 [d7fb43fd] (0/1) No match
04 [e60ac3f0] (0/1) No match
05 [a1c1217b] (0/1) No match
06 [0f4e0247] (0/1) No match
07 [bb59e952] (0/1) No match
08 [a1a0e665] (1/1) Accurately ripped
09 [38542840] (0/1) No match
10 [ef5cf655] (0/1) No match
11 [83316c51] (0/1) No match
12 [011bd0d7] (0/1) No match
13 [adf7806c] (0/1) No match
14 [0bd1d7df] (0/1) No match
15 [fa71b033] (0/1) No match
16 [f4b6c18a] (0/1) No match
17 [44aca62c] (0/1) No match
18 [1e47013c] (0/1) No match
19 [c8849bdd] (0/1) No match
20 [3616157a] (0/1) No match
21 [998e55b6] (0/1) No match
22 [f632d4d3] (0/1) No match
23 [438ede34] (0/1) No match
24 [61201497] (0/1) No match
25 [5e15861b] (0/1) No match
Offsetted by 70:
01 [1397ab75] (0/1) No match
02 [99c5337d] (0/1) No match
03 [0baab663] (0/1) No match
04 [ca613ba7] (0/1) No match
05 [a04fddf8] (0/1) No match
06 [f595a774] (0/1) No match
07 [5661962b] (0/1) No match
08 [035bac25] (0/1) No match
09 [dd37186c] (1/1) Accurately ripped
10 [3da3fc38] (0/1) No match
11 [74004a6f] (0/1) No match
12 [050e0a75] (0/1) No match
13 [0b6ab534] (0/1) No match
14 [9cac7fc8] (0/1) No match
15 [f64d6913] (0/1) No match
16 [a369c492] (0/1) No match
17 [0a0ebf5a] (0/1) No match
18 [ee49ee87] (0/1) No match
19 [582a11c2] (0/1) No match
20 [501e7a09] (0/1) No match
21 [29170623] (0/1) No match
22 [fe809ee2] (0/1) No match
23 [0419d1d4] (0/1) No match
24 [6b82da4c] (0/1) No match
25 [f307176e] (0/1) No match
Offsetted by 81:
01 [8f934a1b] (0/1) No match
02 [c27a5e9a] (0/1) No match
03 [3f5a28c9] (0/1) No match
04 [aeb7b35e] (0/1) No match
05 [9ede9a75] (0/1) No match
06 [dbdd4ca1] (0/1) No match
07 [f1694304] (0/1) No match
08 [651671e5] (0/1) No match
09 [821a0898] (0/1) No match
10 [8beb021b] (1/1) Accurately ripped
11 [64cf288d] (0/1) No match
12 [09004413] (0/1) No match
13 [68dde9fc] (0/1) No match
14 [2d8727b1] (0/1) No match
15 [f22921f3] (0/1) No match
16 [521cc79a] (0/1) No match
17 [cf70d888] (0/1) No match
18 [be4cdbd2] (0/1) No match
19 [e7cf87a7] (0/1) No match
20 [6a26de98] (0/1) No match
21 [b89fb690] (0/1) No match
22 [06ce68f1] (0/1) No match
23 [c4a4c574] (0/1) No match
24 [75e5a001] (0/1) No match
25 [87f8a8c1] (0/1) No match
Offsetted by 92:
01 [0b8ee8c1] (0/1) No match
02 [eb2f89b7] (0/1) No match
03 [73099b2f] (0/1) No match
04 [930e2b15] (0/1) No match
05 [9d6d56f2] (0/1) No match
06 [c224f1ce] (0/1) No match
07 [8c70efdd] (0/1) No match
08 [c6d137a5] (0/1) No match
09 [26fcf8c4] (0/1) No match
10 [da3207fe] (0/1) No match
11 [559e06ab] (1/1) Accurately ripped
12 [0cf27db1] (0/1) No match
13 [c6511ec4] (0/1) No match
14 [be61cf9a] (0/1) No match
15 [ee04dad3] (0/1) No match
16 [00cfcaa2] (0/1) No match
17 [94d2f1b6] (0/1) No match
18 [8e4fc91d] (0/1) No match
19 [7774fd8c] (0/1) No match
20 [842f4327] (0/1) No match
21 [482866fd] (0/1) No match
22 [0f1c3300] (0/1) No match
23 [852fb914] (0/1) No match
24 [804865b6] (0/1) No match
25 [1cea3a14] (0/1) No match
Offsetted by 103:
01 [878a8767] (0/1) No match
02 [13e4b4d4] (0/1) No match
03 [a6b90d95] (0/1) No match
04 [7764a2cc] (0/1) No match
05 [9bfc136f] (0/1) No match
06 [a86c96fb] (0/1) No match
07 [27789cb6] (0/1) No match
08 [288bfd65] (0/1) No match
09 [cbdfe8f0] (0/1) No match
10 [28790de1] (0/1) No match
11 [466ce4c9] (0/1) No match
12 [10e4b74f] (1/1) Accurately ripped
13 [23c4538c] (0/1) No match
14 [4f3c7783] (0/1) No match
15 [e9e093b3] (0/1) No match
16 [af82cdaa] (0/1) No match
17 [5a350ae4] (0/1) No match
18 [5e52b668] (0/1) No match
19 [071a7371] (0/1) No match
20 [9e37a7b6] (0/1) No match
21 [d7b1176a] (0/1) No match
22 [1769fd0f] (0/1) No match
23 [45baacb4] (0/1) No match
24 [8aab2b6b] (0/1) No match
25 [b1dbcb67] (0/1) No match
Offsetted by 114:
01 [0386260d] (0/1) No match
02 [3c99dff1] (0/1) No match
03 [da687ffb] (0/1) No match
04 [5bbb1a83] (0/1) No match
05 [9a8acfec] (0/1) No match
06 [8eb43c28] (0/1) No match
07 [c280498f] (0/1) No match
08 [8a46c325] (0/1) No match
09 [70c2d91c] (0/1) No match
10 [76c013c4] (0/1) No match
11 [373bc2e7] (0/1) No match
12 [14d6f0ed] (0/1) No match
13 [81378854] (1/1) Accurately ripped
14 [e0171f6c] (0/1) No match
15 [e5bc4c93] (0/1) No match
16 [5e35d0b2] (0/1) No match
17 [1f972412] (0/1) No match
18 [2e55a3b3] (0/1) No match
19 [96bfe956] (0/1) No match
20 [b8400c45] (0/1) No match
21 [6739c7d7] (0/1) No match
22 [1fb7c71e] (0/1) No match
23 [0645a054] (0/1) No match
24 [950df120] (0/1) No match
25 [46cd5cba] (0/1) No match
Offsetted by 125:
01 [7f81c4b3] (0/1) No match
02 [654f0b0e] (0/1) No match
03 [0e17f261] (0/1) No match
04 [4011923a] (0/1) No match
05 [99198c69] (0/1) No match
06 [74fbe155] (0/1) No match
07 [5d87f668] (0/1) No match
08 [ec0188e5] (0/1) No match
09 [15a5c948] (0/1) No match
10 [c50719a7] (0/1) No match
11 [280aa105] (0/1) No match
12 [18c92a8b] (0/1) No match
13 [deaabd1c] (0/1) No match
14 [70f1c755] (1/1) Accurately ripped
15 [e1980573] (0/1) No match
16 [0ce8d3ba] (0/1) No match
17 [e4f93d40] (0/1) No match
18 [fe5890fe] (0/1) No match
19 [26655f3b] (0/1) No match
20 [d24870d4] (0/1) No match
21 [f6c27844] (0/1) No match
22 [2805912d] (0/1) No match
23 [c6d093f4] (0/1) No match
24 [9f70b6d5] (0/1) No match
25 [dbbeee0d] (0/1) No match
Offsetted by 136:
01 [fb7d6359] (0/1) No match
02 [8e04362b] (0/1) No match
03 [41c764c7] (0/1) No match
04 [246809f1] (0/1) No match
05 [97a848e6] (0/1) No match
06 [5b438682] (0/1) No match
07 [f88fa341] (0/1) No match
08 [4dbc4ea5] (0/1) No match
09 [ba88b974] (0/1) No match
10 [134e1f8a] (0/1) No match
11 [18d97f23] (0/1) No match
12 [1cbb6429] (0/1) No match
13 [3c1df1e4] (0/1) No match
14 [01cc6f3e] (0/1) No match
15 [dd73be53] (1/1) Accurately ripped
16 [bb9bd6c2] (0/1) No match
17 [aa5b566e] (0/1) No match
18 [ce5b7e49] (0/1) No match
19 [b60ad520] (0/1) No match
20 [ec50d563] (0/1) No match
21 [864b28b1] (0/1) No match
22 [30535b3c] (0/1) No match
23 [875b8794] (0/1) No match
24 [a9d37c8a] (0/1) No match
25 [70b07f60] (0/1) No match
Offsetted by 147:
01 [777901ff] (0/1) No match
02 [b6b96148] (0/1) No match
03 [7576d72d] (0/1) No match
04 [08be81a8] (0/1) No match
05 [96370563] (0/1) No match
06 [418b2baf] (0/1) No match
07 [9397501a] (0/1) No match
08 [af771465] (0/1) No match
09 [5f6ba9a0] (0/1) No match
10 [6195256d] (0/1) No match
11 [09a85d41] (0/1) No match
12 [20ad9dc7] (0/1) No match
13 [999126ac] (0/1) No match
14 [92a71727] (0/1) No match
15 [d94f7733] (0/1) No match
16 [6a4ed9ca] (1/1) Accurately ripped
17 [6fbd6f9c] (0/1) No match
18 [9e5e6b94] (0/1) No match
19 [45b04b05] (0/1) No match
20 [065939f2] (0/1) No match
21 [15d3d91e] (0/1) No match
22 [38a1254b] (0/1) No match
23 [47e67b34] (0/1) No match
24 [b436423f] (0/1) No match
25 [05a210b3] (0/1) No match
Offsetted by 158:
01 [f374a0a5] (0/1) No match
02 [df6e8c65] (0/1) No match
03 [a9264993] (0/1) No match
04 [ed14f95f] (0/1) No match
05 [94c5c1e0] (0/1) No match
06 [27d2d0dc] (0/1) No match
07 [2e9efcf3] (0/1) No match
08 [1131da25] (0/1) No match
09 [044e99cc] (0/1) No match
10 [afdc2b50] (0/1) No match
11 [fa773b5f] (0/1) No match
12 [249fd765] (0/1) No match
13 [f7045b74] (0/1) No match
14 [2381bf10] (0/1) No match
15 [d52b3013] (0/1) No match
16 [1901dcd2] (0/1) No match
17 [351f88ca] (1/1) Accurately ripped
18 [6e6158df] (0/1) No match
19 [d555c0ea] (0/1) No match
20 [20619e81] (0/1) No match
21 [a55c898b] (0/1) No match
22 [40eeef5a] (0/1) No match
23 [08716ed4] (0/1) No match
24 [be9907f4] (0/1) No match
25 [9a93a206] (0/1) No match
More than 16 offsets match!

Track Peak [ CRC32 ] [W/O NULL] [ LOG ]
– 94,3 [6B29D803] [3EF13775]
01 94,3 [E952A8B0] [049E0A74] CRC32
02 94,3 [0E54CF87] [E4EAE62A] CRC32
03 75,9 [E9AB2CA4] [A82E06EC] CRC32
04 94,3 [8403547D] [DC6AC6F1] CRC32
05 94,3 [7F30D567] [27A26EA3] CRC32
06 89,0 [0D26B8BD] [63CB8264] CRC32
07 93,8 [80445E40] [CA936D63] CRC32
08 84,9 [9DAF53FE] [D23A1410] CRC32
09 89,6 [135807A6] [68CE2DF7] CRC32
10 93,0 [FF5C00CB] [BB364BA9] CRC32
11 94,3 [FE928A5A] [B9ABBB66] CRC32
12 79,9 [6E90B9C6] [A19E3576] CRC32
13 94,3 [BBE5462E] [53421EC4] CRC32
14 84,0 [89C305B5] [AC8AFBC7] CRC32
15 89,0 [BCE2F87C] [30D1E642] CRC32
16 90,5 [5E99DE96] [E0BB70B9] CRC32
17 82,3 [534A1D08] [A05885BD] CRC32
18 88,9 [5DB892E1] [78E181CE] CRC32
19 94,3 [FE0CADB4] [74913D34] CRC32
20 92,1 [E3403EF0] [B0F432ED] CRC32
21 84,0 [EBE32B91] [13C3862D] CRC32
22 74,9 [050D2D0E] [406201FC] CRC32
23 94,3 [1538C075] [2A137E34] CRC32
24 92,7 [EED7E421] [D3759724] CRC32
25 86,9 [CFE182E2] [73E6F20D] CRC32


VA - Atlanta Blues: Big City Blues From The Heartland (2005) [4CD Box Set] Repost

All thanks go to the original releaser

Download VA - Atlanta Blues: Big City Blues From The Heartland (2005):