Tags
Language
Tags

Atomic Rooster - Millenium Collection (1999)

Posted By: popsakov
Atomic Rooster - Millenium Collection (1999)

Atomic Rooster - Millenium Collection (1999)
2CD | EAC Rip | FLAC (Img) + Cue + Log ~ 649 Mb | MP3 CBR320 ~ 260 Mb
Full Scans | 00:49:12 + 00:51:39 | RAR 5% Recovery
Progressive Rock, Psychedelic Rock, Hard Rock | Millennium #20.4039-MI

Coming out of the ashes of the Crazy World of Arthur Browne, Atomic Rooster always had the reputation of being an early progressive rock band. In many ways, they do not really fit into that progressive rock label, coming across as a lot more straightforward and less adventurous than many of that ilk. However, they really did present a very unique sound that seemed to build on the strangeness of Brown's outfit while infusing it with a more serious tone. This compilation includes quite a few killer cuts from the group's career. Seeming to be a good introduction to the sound of this outfit.

~ Gary Hill, All Music

***************

Atomic Rooster - Millenium Collection (1999)

Atomic Rooster - Millenium Collection (1999)

Track List CD1:

01. Devil's Answer [4:10]
02. Play It Again [3:11]
03. End Of The Day [3:29]
04. Tomorrow Night [4:50]
05. Lost In Space [5:53]
06. Loose Your Mind [3:37]
07. Control Of You [4:49]
08. Oh She, Oh She's My Woman [3:13]
09. Death Walks Behind You [7:10]
10. Sleeping For Years [5:25]
11. Can't Take No More [3:25]

Exact Audio Copy V1.0 beta 3 from 29. August 2011

EAC extraction logfile from 12. March 2017, 8:18

Atomic Rooster / Millenium Collection 1

Used drive : TSSTcorpCDDVDW SH-216DB Adapter: 0 ID: 0

Read mode : Secure
Utilize accurate stream : Yes
Defeat audio cache : Yes
Make use of C2 pointers : No

Read offset correction : 6
Overread into Lead-In and Lead-Out : No
Fill up missing offset samples with silence : Yes
Delete leading and trailing silent blocks : No
Null samples used in CRC calculations : Yes
Used interface : Native Win32 interface for Win NT & 2000

Used output format : User Defined Encoder
Selected bitrate : 1024 kBit/s
Quality : High
Add ID3 tag : No
Command line compressor : C:\Program Files (x86)\Exact Audio Copy\Flac\flac.exe
Additional command line options : -V -8 -T "Date=%year%" -T "Genre=%genre%" %source%


TOC of the extracted CD

Track | Start | Length | Start sector | End sector
––––––––––––––––––––––––––––-
1 | 0:00.00 | 4:09.61 | 0 | 18735
2 | 4:09.61 | 3:10.52 | 18736 | 33037
3 | 7:20.38 | 3:28.48 | 33038 | 48685
4 | 10:49.11 | 4:50.24 | 48686 | 70459
5 | 15:39.35 | 5:52.62 | 70460 | 96921
6 | 21:32.22 | 3:36.68 | 96922 | 113189
7 | 25:09.15 | 4:49.31 | 113190 | 134895
8 | 29:58.46 | 3:13.17 | 134896 | 149387
9 | 33:11.63 | 7:10.10 | 149388 | 181647
10 | 40:21.73 | 5:24.73 | 181648 | 206020
11 | 45:46.71 | 3:24.46 | 206021 | 221366


Range status and errors

Selected range

Filename L:\Private\My Audio Ripps\ CD - RIPS\Atomic Rooster - Millenium Collection\CD 1\Atomic Rooster - Millenium Collection 1.wav

Peak level 100.0 %
Extraction speed 7.0 X
Range quality 100.0 %
Test CRC FA94FD4C
Copy CRC FA94FD4C
Copy OK

No errors occurred


AccurateRip summary

Track 1 accurately ripped (confidence 7) [E6BFC8CE] (AR v2)
Track 2 accurately ripped (confidence 7) [1D40B7DC] (AR v2)
Track 3 accurately ripped (confidence 7) [211FF7BA] (AR v2)
Track 4 accurately ripped (confidence 7) [A3FEBF82] (AR v2)
Track 5 accurately ripped (confidence 7) [72F2364C] (AR v2)
Track 6 accurately ripped (confidence 7) [F8882DE7] (AR v2)
Track 7 accurately ripped (confidence 7) [D2D45625] (AR v2)
Track 8 accurately ripped (confidence 7) [F7C28144] (AR v2)
Track 9 accurately ripped (confidence 7) [D7749B4B] (AR v2)
Track 10 accurately ripped (confidence 7) [17E450E5] (AR v2)
Track 11 accurately ripped (confidence 7) [C74C3850] (AR v2)

All tracks accurately ripped

End of status report

==== Log checksum 1F12D7D9DD935AC7764C25F6E1CF827A8E45B8C1E39A2E3308FC71C697223FB6 ====

[CUETools log; Date: 14.03.2017 11:13:15; Version: 2.1.5]
[CTDB TOCID: vjByVgzevhFlXdD78jtWF7wLcpE-] found.
Track | CTDB Status
1 | (21/21) Accurately ripped
2 | (21/21) Accurately ripped
3 | (15/21) Accurately ripped, or (6/21) differs in 12 samples @01:16:09
4 | (21/21) Accurately ripped
5 | (21/21) Accurately ripped
6 | (21/21) Accurately ripped
7 | (21/21) Accurately ripped
8 | (21/21) Accurately ripped
9 | (21/21) Accurately ripped
10 | (21/21) Accurately ripped
11 | (20/21) Accurately ripped
[AccurateRip ID: 001371f0-00ab352c-850b870b] found.
Track [ CRC | V2 ] Status
01 [ad514106|e6bfc8ce] (05+07/18) Accurately ripped
02 [5ed1676c|1d40b7dc] (05+07/18) Accurately ripped
03 [64ae625a|211ff7ba] (05+07/18) Accurately ripped
04 [ed5e51dd|a3febf82] (05+07/18) Accurately ripped
05 [1a77f0b8|72f2364c] (05+07/18) Accurately ripped
06 [c7af86a2|f8882de7] (05+07/18) Accurately ripped
07 [5f3332e5|d2d45625] (05+07/18) Accurately ripped
08 [b3941dc4|f7c28144] (05+07/18) Accurately ripped
09 [e02bd11d|d7749b4b] (05+07/18) Accurately ripped
10 [24a7e102|17e450e5] (05+07/19) Accurately ripped
11 [cc334413|c74c3850] (05+07/18) Accurately ripped
Offsetted by -6:
01 [80143d7e] (04/18) Accurately ripped
02 [bad2677e] (04/18) Accurately ripped
03 [f2f75604] (00/18) No match (V2 was not tested)
04 [8faf68dd] (04/18) Accurately ripped
05 [f5080f65] (04/18) Accurately ripped
06 [bd0c7607] (04/18) Accurately ripped
07 [f801ea83] (04/18) Accurately ripped
08 [66afd616] (04/18) Accurately ripped
09 [e5f8e5ee] (04/18) Accurately ripped
10 [aa59220c] (05/19) Accurately ripped
11 [1fd79204] (04/18) Accurately ripped

Track Peak [ CRC32 ] [W/O NULL] [ LOG ]
– 100,0 [FA94FD4C] [116C149C] CRC32
01 99,7 [67933136] [70527423]
02 99,8 [0BF0E4EA] [885F1D84]
03 99,6 [5091BD60] [111E8D8E]
04 100,0 [987FB0A5] [693D3CC0]
05 95,1 [2252694E] [C4948045]
06 99,6 [49892E61] [B8F19112]
07 99,9 [806E7629] [60481DFC]
08 99,8 [B5E92C93] [14124FC9]
09 99,8 [6DCEA655] [ACD876FB]
10 97,0 [67B3713F] [D13F4D6D]
11 99,7 [13A6BB4B] [175408EC]

Atomic Rooster - Millenium Collection (1999)

Atomic Rooster - Millenium Collection (1999)

Track List CD2:

01. Who's Looking For You [3:05]
02. Lose Your Mind [3:34]
03. Watch Out [4:05]
04. I Don't Need You Anymore [3:48]
05. He Did It Again [4:03]
06. The Show [3:53]
07. Start To Live [2:57]
08. Living Underground [3:37]
09. End Of The Day [5:24]
10. Take It For Granted [4:06]
11. Sleepless Nights [3:43]
12. Hold It Through The Night [3:11]
13. No Change By Me [3:17]
14. Throw Your Life Away [2:56]

Exact Audio Copy V1.0 beta 3 from 29. August 2011

EAC extraction logfile from 12. March 2017, 8:58

Atomic Rooster / Millenium Collection - disc 2

Used drive : TSSTcorpCDDVDW SH-216DB Adapter: 0 ID: 0

Read mode : Secure
Utilize accurate stream : Yes
Defeat audio cache : Yes
Make use of C2 pointers : No

Read offset correction : 6
Overread into Lead-In and Lead-Out : No
Fill up missing offset samples with silence : Yes
Delete leading and trailing silent blocks : No
Null samples used in CRC calculations : Yes
Used interface : Native Win32 interface for Win NT & 2000

Used output format : User Defined Encoder
Selected bitrate : 1024 kBit/s
Quality : High
Add ID3 tag : No
Command line compressor : C:\Program Files (x86)\Exact Audio Copy\Flac\flac.exe
Additional command line options : -V -8 -T "Date=%year%" -T "Genre=%genre%" %source%


TOC of the extracted CD

Track | Start | Length | Start sector | End sector
––––––––––––––––––––––––––––-
1 | 0:00.00 | 3:04.39 | 0 | 13838
2 | 3:04.39 | 3:34.35 | 13839 | 29923
3 | 6:38.74 | 4:05.18 | 29924 | 48316
4 | 10:44.17 | 3:47.55 | 48317 | 65396
5 | 14:31.72 | 4:02.66 | 65397 | 83612
6 | 18:34.63 | 3:53.29 | 83613 | 101116
7 | 22:28.17 | 2:57.20 | 101117 | 114411
8 | 25:25.37 | 3:37.23 | 114412 | 130709
9 | 29:02.60 | 5:24.09 | 130710 | 155018
10 | 34:26.69 | 4:06.09 | 155019 | 173477
11 | 38:33.03 | 3:42.67 | 173478 | 190194
12 | 42:15.70 | 3:10.49 | 190195 | 204493
13 | 45:26.44 | 3:16.70 | 204494 | 219263
14 | 48:43.39 | 2:55.55 | 219264 | 232443


Range status and errors

Selected range

Filename L:\Private\My Audio Ripps\ CD - RIPS\Atomic Rooster - Millenium Collection\CD 2\Atomic Rooster - Millenium Collection - disc 2.wav

Peak level 100.0 %
Extraction speed 4.4 X
Range quality 99.9 %
Test CRC F8D9599E
Copy CRC F8D9599E
Copy OK

No errors occurred


AccurateRip summary

Track 1 accurately ripped (confidence 7) [E0FD1D2F] (AR v2)
Track 2 accurately ripped (confidence 7) [FBDA4070] (AR v2)
Track 3 accurately ripped (confidence 7) [1C1148A4] (AR v2)
Track 4 accurately ripped (confidence 7) [A3E171BB] (AR v2)
Track 5 accurately ripped (confidence 7) [08DACCAF] (AR v2)
Track 6 accurately ripped (confidence 7) [B8447FC1] (AR v2)
Track 7 accurately ripped (confidence 7) [F7584AEF] (AR v2)
Track 8 accurately ripped (confidence 7) [A8D84608] (AR v2)
Track 9 accurately ripped (confidence 7) [6EDC0C46] (AR v2)
Track 10 accurately ripped (confidence 7) [D3AFBEFE] (AR v2)
Track 11 accurately ripped (confidence 7) [502E5181] (AR v2)
Track 12 accurately ripped (confidence 7) [63C1DD30] (AR v2)
Track 13 accurately ripped (confidence 7) [64C02FF1] (AR v2)
Track 14 accurately ripped (confidence 7) [AD64933D] (AR v2)

All tracks accurately ripped

End of status report

==== Log checksum 61ADD230F93268BCE7D6A5DB704920E74CEB95EC9ABECE805DA1D77B8D6EEA6C ====

[CUETools log; Date: 14.03.2017 11:13:49; Version: 2.1.5]
[CTDB TOCID: ._oqUmKdhCST6xFVrZqXnf98Ltc-] found.
Track | CTDB Status
1 | (15/15) Accurately ripped
2 | (15/15) Accurately ripped
3 | (14/15) Accurately ripped, or (1/15) differs in 6 samples @03:44:48,03:46:13-03:46:14,03:57:72
4 | (14/15) Accurately ripped, or (1/15) differs in 1 samples @00:04:10
5 | (15/15) Accurately ripped
6 | (14/15) Accurately ripped, or (1/15) differs in 1 samples @03:25:17
7 | (15/15) Accurately ripped
8 | (15/15) Accurately ripped
9 | (14/15) Accurately ripped, or (1/15) differs in 1 samples @03:49:17
10 | (15/15) Accurately ripped
11 | (15/15) Accurately ripped
12 | (15/15) Accurately ripped
13 | (15/15) Accurately ripped
14 | (14/15) Accurately ripped, or (1/15) differs in 1 samples @00:37:28
[AccurateRip ID: 001ae3af-01204e75-b90c1b0e] found.
Track [ CRC | V2 ] Status
01 [04fe1ee9|e0fd1d2f] (04+07/11) Accurately ripped
02 [015eb14b|fbda4070] (04+07/11) Accurately ripped
03 [e175a1e6|1c1148a4] (04+07/11) Accurately ripped
04 [977a847d|a3e171bb] (04+07/11) Accurately ripped
05 [09530a7b|08daccaf] (04+07/11) Accurately ripped
06 [1e7bf658|b8447fc1] (04+07/11) Accurately ripped
07 [983b3e33|f7584aef] (04+07/11) Accurately ripped
08 [eb25cf18|a8d84608] (04+07/11) Accurately ripped
09 [64fe4caa|6edc0c46] (04+07/11) Accurately ripped
10 [4b486c34|d3afbefe] (04+07/11) Accurately ripped
11 [170d7d8b|502e5181] (04+07/11) Accurately ripped
12 [c18ad863|63c1dd30] (04+07/11) Accurately ripped
13 [c1211330|64c02ff1] (04+07/11) Accurately ripped
14 [0382db33|ad64933d] (04+07/11) Accurately ripped

Track Peak [ CRC32 ] [W/O NULL] [ LOG ]
– 100,0 [F8D9599E] [40404D0C] CRC32
01 99,2 [045DEB27] [96469DE8]
02 100,0 [A6794947] [8DBDEB3F]
03 99,5 [550F7CEB] [B5182914]
04 100,0 [C6A31BBD] [D31A50FC]
05 99,9 [A34AF6F8] [3CCA181B]
06 100,0 [DB372EAF] [C9393FA2]
07 100,0 [48F8172A] [4AB7CE23]
08 100,0 [1CC3B813] [50D00608]
09 92,6 [B5778E5F] [2A2D0D80]
10 100,0 [F14CBB59] [7933C237]
11 99,6 [7EA57562] [1E3FBDFE]
12 97,4 [CBFDE2DE] [2404059C]
13 99,6 [35AEBDAE] [220FE430]
14 100,0 [95E0FB05] [D8420B1F]

Atomic Rooster - Millenium Collection (1999)


All thanks go to alexpika

>>> Atomic Rooster in my Blog <<<

DOWNLOAD: