Ayşe Gencer - But Beautiful {aisha}

Posted By: Oceandrop
Ayşe Gencer - But Beautiful {aisha}

Ayşe Gencer - But Beautiful {aisha}
Jazz | EAC Rip | FLAC-7 Image+CUE+LOG | 292 MB.
600dpi. Complete Scans (JPG): 23,3 MB. | WinRar, 3% rec. included
Audio CD (2011) | Label: aisha | Catalog# aisha004 | 52:19 min. | rapidshare


Musicians:
Ayşe Gencer - vocals
İmer Demirer - trumpet
Serkan Özyılmaz - piano
Matt Hall - bass
Cem Aksel - drums
Meriç Demirkol - alto sax.
Tunç Çakır - percussion

Tracklist:
01. But Beautiful
02. I Didn't Know What Time it Was
03. Don't Explain
04. Just Friends
05. I've Got World on a String
06. For Heaven's Sake
07. Give Me the Simple Life
08. The Man I Love
09. Pennies from Heaven
10. Luiza

Recorded 15-16 October 2010, in Tepebaşı BabaJim Studio - İstanbul.
Recorded by Can Aykal, assisted by Günseli Işık Yılmaz & Derya Başer.
Mixed by Can Aykal & Brian Bender.
Mastering by Kevin Metcalfe.


Exact Audio Copy V1.0 beta 1 from 15. November 2010

EAC extraction logfile from 21. June 2011, 17:08

Ayşe Gencer / But Beautiful {aisha}

Used drive : ASUS DRW-1608P3S Adapter: 0 ID: 1

Read mode : Secure
Utilize accurate stream : Yes
Defeat audio cache : Yes
Make use of C2 pointers : No

Read offset correction : 48
Overread into Lead-In and Lead-Out : No
Fill up missing offset samples with silence : Yes
Delete leading and trailing silent blocks : No
Null samples used in CRC calculations : Yes
Used interface : Native Win32 interface for Win NT & 2000

Used output format : Internal WAV Routines
Sample format : 44.100 Hz; 16 Bit; Stereo


TOC of the extracted CD

Track | Start | Length | Start sector | End sector
––––––––––––––––––––––––––––-
1 | 0:00.00 | 7:00.59 | 0 | 31558
2 | 7:00.59 | 5:28.20 | 31559 | 56178
3 | 12:29.04 | 6:23.15 | 56179 | 84918
4 | 18:52.19 | 5:14.00 | 84919 | 108468
5 | 24:06.19 | 3:53.02 | 108469 | 125945
6 | 27:59.21 | 5:57.02 | 125946 | 152722
7 | 33:56.23 | 3:48.24 | 152723 | 169846
8 | 37:44.47 | 7:12.59 | 169847 | 202305
9 | 44:57.31 | 3:30.04 | 202306 | 218059
10 | 48:27.35 | 3:52.14 | 218060 | 235473


Range status and errors

Selected range

Filename D:\Ayşe Gencer - But Beautiful {aisha}.wav

Peak level 100.0 %
Extraction speed 0.5 X
Range quality 99.9 %
Test CRC AA76420C
Copy CRC AA76420C
Copy OK

No errors occurred


AccurateRip summary

Track 1 not present in database
Track 2 not present in database
Track 3 not present in database
Track 4 not present in database
Track 5 not present in database
Track 6 not present in database
Track 7 not present in database
Track 8 not present in database
Track 9 not present in database
Track 10 not present in database

None of the tracks are present in the AccurateRip database

End of status report

==== Log checksum 3383B58C4919A78CB1C1AEF888F08CD273AEAE3CFE10647F8B876767567E3E3C ====

Ayşe Gencer - But Beautiful {aisha}