Subcategories

B.B. King - Blues On Top Of The Blues (1968)

Posted By: v3122
B.B. King - Blues On Top Of The Blues (1968)

B.B. King - Blues On Top Of The Blues (1968)
EAC | Flac(Image) + Cue + Log & MP3 CBR 320Kbps
1997 | BGO Records, BGOCD69 | ~ 187 or 75 Mb | Scans(jpg) -> 21 Mb
Blues / Electric Blues

This isn't his most well-known stuff, but it's a very solid late '60s set. Featuring brassy arrangements by Johnny Pate (who also worked with many prominent Chicago soul acts during the '60s), it presents King's sound at its fullest without sacrificing any of his grit or sophisticated swing. No famous classics here, but the material is very strong throughout.

by Richie Unterberger, allmusic
B.B. King - Blues On Top Of The Blues (1968)


B.B. King - Blues On Top Of The Blues (1968):

B.B. King - Blues On Top Of The Blues (1968)

Tracklist:

01. Heartbreaker [2:31]
02. Losing Faith In You [2:59]
03. Dance With Me [3:22]
04. That's Wrong Little Mama [2:20]
05. Having My Say [2:40]
06. I'm Not Wanted Anymore [2:25]
07. Worried Dream [2:55]
08. Paying The Cost To Be The Boss [2:36]
09. Until I Found You [2:24]
10. I'm Gonna Do What They Do To Me [2:48]
11. Raining In My Heart [2:29]
12. Now That You've Lost Me [2:28]

Exact Audio Copy V1.3 from 2. September 2016

EAC extraction logfile from 14. December 2016, 17:04

B.B. KING / Blues On Top Of The Blues (G.Britain, BGO Records, BGOCD69)

Used drive : ASUS DRW-24B3ST Adapter: 1 ID: 2

Read mode : Secure
Utilize accurate stream : Yes
Defeat audio cache : Yes
Make use of C2 pointers : No

Read offset correction : 6
Overread into Lead-In and Lead-Out : No
Fill up missing offset samples with silence : Yes
Delete leading and trailing silent blocks : No
Null samples used in CRC calculations : Yes
Used interface : Native Win32 interface for Win NT & 2000

Used output format : User Defined Encoder
Selected bitrate : 1024 kBit/s
Quality : High
Add ID3 tag : No
Command line compressor : C:\Program Files\EAC(v.1.3)\WV\wavpack.exe
Additional command line options : -h -hh -m %source%


TOC of the extracted CD

Track | Start | Length | Start sector | End sector
––––––––––––––––––––––––––––-
1 | 0:00.00 | 2:31.07 | 0 | 11331
2 | 2:31.07 | 2:58.55 | 11332 | 24736
3 | 5:29.62 | 3:21.73 | 24737 | 39884
4 | 8:51.60 | 2:19.57 | 39885 | 50366
5 | 11:11.42 | 2:39.63 | 50367 | 62354
6 | 13:51.30 | 2:25.00 | 62355 | 73229
7 | 16:16.30 | 2:54.45 | 73230 | 86324
8 | 19:11.00 | 2:35.62 | 86325 | 98011
9 | 21:46.62 | 2:23.63 | 98012 | 108799
10 | 24:10.50 | 2:47.52 | 108800 | 121376
11 | 26:58.27 | 2:28.43 | 121377 | 132519
12 | 29:26.70 | 2:27.47 | 132520 | 143591


Range status and errors

Selected range

Filename F:\B.B. KING - Blues On Top Of The Blues (1968) (GB 1997 BGO Records, Ltd. • BGOCD69)\B.B. KING - Blues On Top … (G.Britain, BGO Records, BGOCD69).wav

Peak level 100.0 %
Extraction speed 6.8 X
Range quality 100.0 %
Test CRC 9EF3A51D
Copy CRC 9EF3A51D
Copy OK

No errors occurred


AccurateRip summary

Track 1 accurately ripped (confidence 2) [04B244D3] (AR v1)
Track 2 accurately ripped (confidence 2) [3B28D347] (AR v1)
Track 3 accurately ripped (confidence 3) [855FED96] (AR v1)
Track 4 accurately ripped (confidence 3) [2DC75790] (AR v1)
Track 5 accurately ripped (confidence 3) [052EC210] (AR v1)
Track 6 accurately ripped (confidence 3) [26BDA948] (AR v1)
Track 7 accurately ripped (confidence 3) [F8841E08] (AR v1)
Track 8 accurately ripped (confidence 3) [F06A3CFB] (AR v1)
Track 9 accurately ripped (confidence 3) [FC4DCC8B] (AR v1)
Track 10 accurately ripped (confidence 2) [96D31897] (AR v1)
Track 11 accurately ripped (confidence 2) [9B6F3B68] (AR v1)
Track 12 accurately ripped (confidence 2) [4DA8A2A4] (AR v1)

All tracks accurately ripped

End of status report

==== Log checksum 857D5FC9EFB638CD22258B2EF5A6373AFE7A82707D2495DCD459064404FEFFE4 ====

foobar2000 1.2.9 / Dynamic Range Meter 1.1.1
log date: 2016-12-20 20:54:46

––––––––––––––––––––––––––––––––––––––––
Analyzed: B.B. KING / Blues On Top Of The Blues (G.Britain, BGO Records, BGOCD69)
––––––––––––––––––––––––––––––––––––––––

DR Peak RMS Duration Track
––––––––––––––––––––––––––––––––––––––––
DR12 0.00 dB -13.55 dB 2:31 01-Heartbreaker
DR11 0.00 dB -13.87 dB 2:59 02-Losing Faith In You
DR11 0.00 dB -13.13 dB 3:22 03-Dance With Me
DR11 0.00 dB -12.96 dB 2:20 04-That's Wrong Little Mama
DR11 0.00 dB -12.79 dB 2:40 05-Having My Say
DR11 0.00 dB -13.58 dB 2:25 06-I'm Not Wanted Anymore
DR10 0.00 dB -13.58 dB 2:55 07-Worried Dream
DR11 0.00 dB -13.37 dB 2:36 08-Paying The Cost To Be The Boss
DR11 0.00 dB -12.72 dB 2:24 09-Until I Found You
DR11 0.00 dB -12.98 dB 2:48 10-I'm Gonna Do What They Do To Me
DR12 0.00 dB -13.35 dB 2:29 11-Raining In My Heart
DR10 0.00 dB -12.28 dB 2:28 12-Now That You've Lost Me
––––––––––––––––––––––––––––––––––––––––

Number of tracks: 12
Official DR value: DR11

Samplerate: 44100 Hz
Channels: 2
Bits per sample: 16
Bitrate: 797 kbps
Codec: FLAC

[CUETools log; Date: 20.12.2016 20:54:37; Version: 2.1.4]
[CTDB TOCID: zkMFEtSor_.4QX2D2fRHTVwpP10-] found.
Track | CTDB Status
1 | (6/6) Accurately ripped
2 | (6/6) Accurately ripped
3 | (6/6) Accurately ripped
4 | (6/6) Accurately ripped
5 | (6/6) Accurately ripped
6 | (6/6) Accurately ripped
7 | (6/6) Accurately ripped
8 | (6/6) Accurately ripped
9 | (6/6) Accurately ripped
10 | (6/6) Accurately ripped
11 | (6/6) Accurately ripped
12 | (6/6) Accurately ripped
[AccurateRip ID: 000e88d4-008701a6-94077a0c] found.
Track [ CRC | V2 ] Status
01 [04b244d3|28b81f49] (2+0/6) Accurately ripped
02 [3b28d347|ad8e923a] (2+0/6) Accurately ripped
03 [855fed96|bfedb3d1] (3+0/7) Accurately ripped
04 [2dc75790|ab215e96] (3+0/7) Accurately ripped
05 [052ec210|a3321d4c] (3+0/7) Accurately ripped
06 [26bda948|1b71fae2] (3+0/7) Accurately ripped
07 [f8841e08|68124221] (3+0/7) Accurately ripped
08 [f06a3cfb|59526f7b] (3+0/7) Accurately ripped
09 [fc4dcc8b|9bb42682] (3+0/7) Accurately ripped
10 [96d31897|8551d17f] (2+0/6) Accurately ripped
11 [9b6f3b68|5e8c9dc9] (2+0/6) Accurately ripped
12 [4da8a2a4|23b8c725] (2+0/6) Accurately ripped
Offsetted by -18:
01 [2707ec68] (2/6) Accurately ripped
02 [2fed549b] (2/6) Accurately ripped
03 [39eb3cfd] (2/7) Accurately ripped
04 [07b2f154] (2/7) Accurately ripped
05 [6354afd9] (2/7) Accurately ripped
06 [e924d500] (2/7) Accurately ripped
07 [0b774a2a] (2/7) Accurately ripped
08 [ac74737f] (2/7) Accurately ripped
09 [f61d2876] (2/7) Accurately ripped
10 [1d973469] (2/6) Accurately ripped
11 [cfe605d9] (2/6) Accurately ripped
12 [14ff67f3] (2/6) Accurately ripped

Track Peak [ CRC32 ] [W/O NULL] [ LOG ]
– 100,0 [9EF3A51D] [9B64DE72] CRC32
01 100,0 [E078BA73] [505534DB]
02 100,0 [8D5D917F] [EF330DEB]
03 100,0 [AAD2AB93] [920F3128]
04 99,9 [C9C5A9E6] [13FC4529]
05 100,0 [A9F1D579] [4B488EC9]
06 100,0 [FC371736] [197B151E]
07 100,0 [5FFC531E] [5A22C87B]
08 100,0 [77A0B080] [B167ECDE]
09 100,0 [7B475F92] [252BF59D]
10 99,9 [2D88A43A] [8B97C535]
11 100,0 [BE4B23BB] [FDA607B6]
12 100,0 [29C89008] [1611C42B]

B.B. King - Blues On Top Of The Blues (1968)

All thanks go to the original releaser

B.B. King in my Blog

Download B.B. King - Blues On Top Of The Blues (1968):