Subcategories

B.B. King - King Of The Blues: 1989 (1988)

Posted By: v3122
B.B. King - King Of The Blues: 1989 (1988)

B.B. King - King Of The Blues: 1989 (1988)
EAC | Flac(Image) + Cue + Log & MP3 CBR 320Kbps
MCA Records, MCD 06038 | ~ 328 or 121 Mb | Scans(jpg) -> 40 Mb
Blues / R & B

Over-glossed R&B tracks, heavy doses of keyboards and drum programming are an ideal way to make albums for the pop charts, but for B.B. King, they are tools of disaster. Lyrically and vocally the album holds up rather well. But King's signature guitar sound is often overshadowed in favor of synthesizers, rendering the tracks useless. Thankfully there are a few exceptions to this: "Lay Another Log on the Fire" and "Take Off Your Shoes" are solid tracks where King simply does what he does best, sing the blues and wails on Lucille. While collectors might need this for their collection, they will most likely scoff at the ridiculous arrangements; casual fans can skip this one altogether.

by Curtis Zimmermann, allmusic
B.B. King - King Of The Blues: 1989 (1988)


B.B. King - King Of The Blues: 1989 (1988):

B.B. King - King Of The Blues: 1989 (1988)

Tracklist:

01. (You've Become A) Habit To Me [4:45]
02. Drowning In The Sea Of Love [4:39]
03. Can't Get Enough [4:53]
04. Standing On The Edge [5:22]
05. Go On [3:55]
06. Let's Straighten It Out [5:36]
07. Change In Your Lovin' [3:28]
08. Undercover Man [5:40]
09. Lay Another Log On The Fire [4:03]
10. Business With My Baby Tonight [3:33]
11. Take Off Your Shoes [5:33]

Exact Audio Copy V1.3 from 2. September 2016

EAC extraction logfile from 14. December 2016, 19:13

B.B. KING / King Of The Blues 1989 (W.Germany, MCA Records, MCD 06038)

Used drive : ASUS DRW-24B3ST Adapter: 1 ID: 2

Read mode : Secure
Utilize accurate stream : Yes
Defeat audio cache : Yes
Make use of C2 pointers : No

Read offset correction : 6
Overread into Lead-In and Lead-Out : No
Fill up missing offset samples with silence : Yes
Delete leading and trailing silent blocks : No
Null samples used in CRC calculations : Yes
Used interface : Native Win32 interface for Win NT & 2000

Used output format : User Defined Encoder
Selected bitrate : 1024 kBit/s
Quality : High
Add ID3 tag : No
Command line compressor : C:\Program Files\EAC(v.1.3)\WV\wavpack.exe
Additional command line options : -h -hh -m %source%


TOC of the extracted CD

Track | Start | Length | Start sector | End sector
––––––––––––––––––––––––––––-
1 | 0:00.00 | 4:44.67 | 0 | 21366
2 | 4:44.67 | 4:39.13 | 21367 | 42304
3 | 9:24.05 | 4:52.42 | 42305 | 64246
4 | 14:16.47 | 5:21.65 | 64247 | 88386
5 | 19:38.37 | 3:54.65 | 88387 | 106001
6 | 23:33.27 | 5:36.33 | 106002 | 131234
7 | 29:09.60 | 3:28.32 | 131235 | 146866
8 | 32:38.17 | 5:40.30 | 146867 | 172396
9 | 38:18.47 | 4:02.63 | 172397 | 190609
10 | 42:21.35 | 3:32.50 | 190610 | 206559
11 | 45:54.10 | 5:32.57 | 206560 | 231516


Range status and errors

Selected range

Filename F:\B.B. KING - King Of The Blues 1989 (DE 1988 MCA Records, Inc. • MCD 06038)\B.B. KING - King Of The Blues 1989 (W.Germany, MCA Records, MCD 06038).wav

Peak level 95.5 %
Extraction speed 7.6 X
Range quality 100.0 %
Test CRC 28DBF6BA
Copy CRC 28DBF6BA
Copy OK

No errors occurred


AccurateRip summary

Track 1 accurately ripped (confidence 12) [C7D3B85D] (AR v2)
Track 2 accurately ripped (confidence 11) [9AEAABBB] (AR v2)
Track 3 accurately ripped (confidence 11) [40E7A035] (AR v2)
Track 4 accurately ripped (confidence 11) [06E49883] (AR v2)
Track 5 accurately ripped (confidence 10) [4C934723] (AR v2)
Track 6 accurately ripped (confidence 11) [DD129250] (AR v2)
Track 7 accurately ripped (confidence 9) [58052CD5] (AR v2)
Track 8 accurately ripped (confidence 10) [9F8EC48A] (AR v2)
Track 9 accurately ripped (confidence 10) [C544929A] (AR v2)
Track 10 accurately ripped (confidence 10) [291D2BBE] (AR v2)
Track 11 accurately ripped (confidence 10) [EC6C2F10] (AR v2)

All tracks accurately ripped

End of status report

==== Log checksum 3E51DA117841E33F191EAE8120E2F5E9456884AF92A4B1064F40FF6B0697AE9A ====

foobar2000 1.2.9 / Dynamic Range Meter 1.1.1
log date: 2017-01-17 09:11:38

––––––––––––––––––––––––––––––––––––––––
Analyzed: B.B. KING / King Of The Blues 1989 (W.Germany, MCA Records, MCD 06038)
––––––––––––––––––––––––––––––––––––––––

DR Peak RMS Duration Track
––––––––––––––––––––––––––––––––––––––––
DR14 -0.40 dB -15.77 dB 4:45 01-(You've Become A) Habit To Me
DR14 -0.40 dB -17.01 dB 4:39 02-Drowning In The Sea Of Love
DR13 -0.61 dB -15.38 dB 4:53 03-Can't Get Enough
DR14 -0.40 dB -16.03 dB 5:22 04-Standing On The Edge
DR14 -0.93 dB -16.02 dB 3:55 05-Go On
DR13 -2.01 dB -16.48 dB 5:36 06-Let's Straighten It Out
DR14 -0.40 dB -15.68 dB 3:28 07-Change In Your Lovin'
DR12 -2.12 dB -15.14 dB 5:40 08-Undercover Man
DR13 -0.86 dB -16.62 dB 4:03 09-Lay Another Log On The Fire
DR13 -1.03 dB -16.77 dB 3:33 10-Business With My Baby Tonight
DR14 -1.36 dB -17.99 dB 5:33 11-Take Off Your Shoes
––––––––––––––––––––––––––––––––––––––––

Number of tracks: 11
Official DR value: DR13

Samplerate: 44100 Hz
Channels: 2
Bits per sample: 16
Bitrate: 865 kbps
Codec: FLAC

[CUETools log; Date: 17.01.2017 9:10:48; Version: 2.1.4]
[CTDB TOCID: QNIrLlrZ6ZTBLvFI6r1JbADL2mM-] found.
Track | CTDB Status
1 | (35/35) Accurately ripped
2 | (34/35) Accurately ripped
3 | (35/35) Accurately ripped
4 | (34/35) Accurately ripped
5 | (34/35) Accurately ripped
6 | (33/35) Accurately ripped
7 | (34/35) Accurately ripped
8 | (35/35) Accurately ripped
9 | (33/35) Accurately ripped
10 | (35/35) Accurately ripped
11 | (33/35) Accurately ripped
[AccurateRip ID: 00156296-00b8b9db-920c0e0b] found.
Track [ CRC | V2 ] Status
01 [bd0859bd|c7d3b85d] (07+12/29) Accurately ripped
02 [431e1609|9aeaabbb] (07+11/28) Accurately ripped
03 [7d8cd7b7|40e7a035] (07+11/27) Accurately ripped
04 [a772789d|06e49883] (07+11/28) Accurately ripped
05 [6843cf7c|4c934723] (07+10/27) Accurately ripped
06 [ab457714|dd129250] (07+11/28) Accurately ripped
07 [45153414|58052cd5] (07+09/26) Accurately ripped
08 [0057d6e9|9f8ec48a] (07+10/27) Accurately ripped
09 [4e03d75d|c544929a] (07+10/27) Accurately ripped
10 [5d4f9540|291d2bbe] (07+10/26) Accurately ripped
11 [e3fa45ce|ec6c2f10] (07+10/26) Accurately ripped
Offsetted by -1863:
01 [dc8460cf] (04/29) Accurately ripped
02 [20e3986c] (04/28) Accurately ripped
03 [910f1e93] (03/27) Accurately ripped
04 [caea3d3c] (04/28) Accurately ripped
05 [644516c0] (04/27) Accurately ripped
06 [62ac3a2f] (04/28) Accurately ripped
07 [3cce35de] (04/26) Accurately ripped
08 [26f6b97d] (04/27) Accurately ripped
09 [1e81d637] (04/27) Accurately ripped
10 [cb7bdc99] (03/26) Accurately ripped
11 [84a44dcb] (03/26) Accurately ripped

Track Peak [ CRC32 ] [W/O NULL] [ LOG ]
– 95,5 [28DBF6BA] [B0A2DE9B] CRC32
01 95,5 [7FC3DB7E] [E42FB8EB]
02 95,5 [75064197] [0EBD4D30]
03 93,2 [4FD901F1] [21B5E33F]
04 95,5 [11979B97] [D9F3DDC9]
05 89,8 [90BC1D6B] [CD476E8A]
06 79,3 [00D34D02] [33257883]
07 95,5 [E2845EDB] [CE969FFE]
08 78,3 [0AB80FE6] [76850483]
09 90,5 [E23107BF] [0D2DDA97]
10 88,7 [0108678F] [5C918DD1]
11 85,5 [03255CC4] [65A22221]

B.B. King - King Of The Blues: 1989 (1988)

All thanks go to the original releaser

B.B. King in my Blog

Download B.B. King - King Of The Blues: 1989 (1988):