Subcategories

B.B. King - Six Silver Strings (1985)

Posted By: v3122
B.B. King - Six Silver Strings (1985)

B.B. King - Six Silver Strings (1985)
EAC | Flac(Image) + Cue + Log & MP3 CBR 320Kbps
1990 | MCA, MCAD-5616 | ~ 207 or 80 Mb | Scans(jpg) -> 26 Mb
Blues / Electric Blues

For a recording fervently hyped as a special occasion – B.B. King's 50th album and all that – this one is surprisingly patchy in concept and erratic in execution. Five of the tracks are Miami sessions prosaically produced by longtime King cohort Dave Crawford, who also co-wrote most of them with Luther Dixon. The routine pop/rock backing tracks produce an often apathetic response from King; even Dixon's "Big Boss Man" is depressingly routine. Oddly enough, the only numbers that have any grit are the three co-produced by filmmaker John Landis (of the Blues Brothers notoriety) and Ira Newborn from the soundtrack to the former's film Into the Night. Indeed, Newborn's "My Lucille," the ultimate apotheosis to King's beloved guitar, is an underrated signature classic – even Lucille herself gets a lot of space to sing out – and "In the Midnight Hour" also strikes fire. Buy it for "My Lucille," if you don't mind the filler and the fact that the album offers appallingly short weight at just under 34 minutes.

by Richard S. Ginell, allmusic
B.B. King - Six Silver Strings (1985)


B.B. King - Six Silver Strings (1985):

B.B. King - Six Silver Strings (1985)

Tracklist:

01. Six Silver Strings [4:23]
02. Big Boss Man [4:48]
03. In The Midnight Hour [3:25]
04. Into The Night [4:12]
05. My Lucille [3:42]
06. Memory Lane [4:35]
07. My Guitar Sings The Blues [3:39]
08. Double Trouble [5:13]

Exact Audio Copy V1.3 from 2. September 2016

EAC extraction logfile from 14. December 2016, 18:46

B.B. KING / Six Silver Strings (USA, MCA Records, MCAD-5616)

Used drive : ASUS DRW-24B3ST Adapter: 1 ID: 1

Read mode : Secure
Utilize accurate stream : Yes
Defeat audio cache : Yes
Make use of C2 pointers : No

Read offset correction : 6
Overread into Lead-In and Lead-Out : No
Fill up missing offset samples with silence : Yes
Delete leading and trailing silent blocks : No
Null samples used in CRC calculations : Yes
Used interface : Native Win32 interface for Win NT & 2000

Used output format : User Defined Encoder
Selected bitrate : 1024 kBit/s
Quality : High
Add ID3 tag : No
Command line compressor : C:\Program Files\EAC(v.1.3)\WV\wavpack.exe
Additional command line options : -h -hh -m %source%


TOC of the extracted CD

Track | Start | Length | Start sector | End sector
––––––––––––––––––––––––––––-
1 | 0:00.00 | 4:22.72 | 0 | 19721
2 | 4:22.72 | 4:47.38 | 19722 | 41284
3 | 9:10.35 | 3:24.62 | 41285 | 56646
4 | 12:35.22 | 4:11.38 | 56647 | 75509
5 | 16:46.60 | 3:41.70 | 75510 | 92154
6 | 20:28.55 | 4:35.15 | 92155 | 112794
7 | 25:03.70 | 3:39.35 | 112795 | 129254
8 | 28:43.30 | 5:12.72 | 129255 | 152726


Range status and errors

Selected range

Filename F:\B.B. KING - Six Silver Strings (1985) (US 1990 MCA Records, Inc. • MCAD-5616)\B.B. KING - Six Silver Strings (USA, MCA Records, MCAD-5616).wav

Peak level 81.2 %
Extraction speed 6.9 X
Range quality 100.0 %
Test CRC DEE265C5
Copy CRC DEE265C5
Copy OK

No errors occurred


AccurateRip summary

Track 1 accurately ripped (confidence 4) [E19C0DF9] (AR v2)
Track 2 accurately ripped (confidence 4) [1DB6B651] (AR v2)
Track 3 accurately ripped (confidence 4) [570EF3AF] (AR v2)
Track 4 accurately ripped (confidence 4) [0D8B433A] (AR v2)
Track 5 accurately ripped (confidence 4) [371712C5] (AR v2)
Track 6 accurately ripped (confidence 4) [3C15C9F8] (AR v2)
Track 7 accurately ripped (confidence 4) [F251DF15] (AR v2)
Track 8 accurately ripped (confidence 4) [078F8E84] (AR v2)

All tracks accurately ripped

End of status report

==== Log checksum 1583554A242BEECB65C94B479A21B2057C51D7A443FFDCABA43BEB4F3CD64454 ====

foobar2000 1.2.9 / Dynamic Range Meter 1.1.1
log date: 2017-01-06 09:48:02

––––––––––––––––––––––––––––––––––––––––
Analyzed: B.B. KING / Six Silver Strings (USA, MCA Records, MCAD-5616)
––––––––––––––––––––––––––––––––––––––––

DR Peak RMS Duration Track
––––––––––––––––––––––––––––––––––––––––
DR13 -2.15 dB -17.83 dB 4:23 01-Six Silver Strings
DR14 -1.91 dB -19.07 dB 4:48 02-Big Boss Man
DR12 -1.90 dB -16.09 dB 3:25 03-In The Midnight Hour
DR13 -1.80 dB -17.14 dB 4:12 04-Into The Night
DR13 -1.80 dB -17.46 dB 3:42 05-My Lucille
DR13 -1.80 dB -16.66 dB 4:35 06-Memory Lane
DR12 -3.42 dB -18.85 dB 3:39 07-My Guitar Sings The Blues
DR13 -1.80 dB -17.17 dB 5:13 08-Double Trouble
––––––––––––––––––––––––––––––––––––––––

Number of tracks: 8
Official DR value: DR13

Samplerate: 44100 Hz
Channels: 2
Bits per sample: 16
Bitrate: 831 kbps
Codec: FLAC

[CUETools log; Date: 06.01.2017 9:47:51; Version: 2.1.4]
[CTDB TOCID: Y4NEbmpeZOmlqsZ3buQyokN96IU-] found.
Track | CTDB Status
1 | (12/12) Accurately ripped
2 | (12/12) Accurately ripped
3 | (12/12) Accurately ripped
4 | (12/12) Accurately ripped
5 | (12/12) Accurately ripped
6 | (12/12) Accurately ripped
7 | (12/12) Accurately ripped
8 | (12/12) Accurately ripped
[AccurateRip ID: 000a60a0-0044f274-5607f408] found.
Track [ CRC | V2 ] Status
01 [e97c9cbd|e19c0df9] (03+04/10) Accurately ripped
02 [7347bc27|1db6b651] (03+04/10) Accurately ripped
03 [e96a25d6|570ef3af] (03+04/10) Accurately ripped
04 [9b8dfc9f|0d8b433a] (03+04/10) Accurately ripped
05 [6bd01598|371712c5] (03+04/10) Accurately ripped
06 [aa753397|3c15c9f8] (03+04/10) Accurately ripped
07 [920d756b|f251df15] (03+04/10) Accurately ripped
08 [01a2d9e5|078f8e84] (03+04/10) Accurately ripped
Offsetted by -679:
01 [4d977013] (00/10) No match (V2 was not tested)
02 [669c1f52] (00/10) No match (V2 was not tested)
03 [91c75753] (00/10) No match (V2 was not tested)
04 [a3f3e570] (00/10) No match (V2 was not tested)
05 [e1b3cc6b] (00/10) No match (V2 was not tested)
06 [fea62915] (00/10) No match (V2 was not tested)
07 [b9802fe6] (00/10) No match (V2 was not tested)
08 [33297afa] (00/10) No match (V2 was not tested)

Track Peak [ CRC32 ] [W/O NULL] [ LOG ]
– 81,2 [DEE265C5] [162F3A7D] CRC32
01 78,1 [9F5DED07] [FDA661BE]
02 80,2 [C6795415] [9C2C7276]
03 80,3 [9B52FE80] [8FEAE617]
04 81,2 [E0737B30] [88B41E2A]
05 81,2 [6C9DA99F] [1E18F546]
06 81,2 [8F8C65F3] [8764F70C]
07 67,4 [A29318DC] [F2DD67F9]
08 81,2 [189C59C0] [9633C9E1]

B.B. King - Six Silver Strings (1985)

All thanks go to the original releaser

B.B. King in my Blog

Download B.B. King - Six Silver Strings (1985):