Tags
Language
Tags

BBM - Around The Next Dream (1994) {2003, Remastered & Expanded}

Posted By: popsakov
BBM - Around The Next Dream (1994) {2003, Remastered & Expanded}

BBM - Around The Next Dream (1994) {2003, Remastered & Expanded}
EAC Rip | FLAC (Img) + Cue + Log ~ 560 Mb | MP3 CBR320 ~ 187 Mb
Full Scans ~ 105 Mb | 01:17:35 | RAR 5% Recovery
Blues Rock, Hard Rock | Virgin #7243 5 83673 2 4 / MOORECD12

BBM (Bruce / Baker / Moore) is the name of the short-lived power trio formed in 1993, by long established artists, bassist Jack Bruce, drummer Ginger Baker and guitarist Gary Moore. They released just one studio album, entitled Around The Next Dream, which was released on the Virgin record label. It reached Number 9 in the UK Albums Chart in the summer of 1994, but spent only four weeks in the listings. The track, "Where in the World" was issued as a single, reaching Number 57 in the UK Singles Chart in August 1994. Much of the work was written by Moore with contributions by Bruce and Baker. The album cover featured a picture of Baker. The band went on a short UK tour to coincide with the album's release and also played a handful of rock festivals on the continent, before disbanding.

Any time Ginger Baker and Jack Bruce work together, comparisons to Cream are inevitable. Given that this album's opener, "Waiting in the Wings," bears a passing resemblance to "White Room," and that this is then followed by a "Crossroads" knockoff, perhaps the comparisons are justifiable. Unfortunately, BBM doesn't benefit from such self-plagiarism. The weak link is, surprisingly, not with the Clapton stand-in, Gary Moore – it's in the underwhelming drumming and bass playing by the two bona fide Creamsters. Bruce's voice is as pleasing as ever, but his and Baker's merely competent English blues instrumental work will fall short of the expectations of fans who know what they're capable of.

~ Paul Collins, All Music

***************

BBM - Around The Next Dream (1994) {2003, Remastered & Expanded}

BBM - Around The Next Dream (1994) {2003, Remastered & Expanded}

Track List:

01. Waiting In The Wings [0:03:46.05]
02. City Of Gold [0:03:57.20]
03. Where In The World [0:05:22.50]
04. Can't Fool The Blues [0:05:18.32]
05. High Cost Of Loving [0:05:43.10]
06. Glory Days [0:04:23.05]
07. Why Does Love (Have To Go Wrong)? [0:08:27.38]
08. Naked Flame [0:06:12.30]
09. I Wonder Why (Are You So Mean To Me?) [0:04:59.20]
10. Wrong Side Of Town [0:04:04.20]

Bonus Tracks
11. Danger Zone [0:05:59.47]
12. The World Keeps On Turnin' [0:07:52.35]
13. Sitting On Top Of The World [0:06:21.43]
14. I Wonder Why (Are You So Mean To Me?) [0:05:08.10]

Personnel:
Gary Moore - Vocals, Guitar
Jack Bruce - Vocals, Bass Guitar, Cotto, Keyboards on Track 10
Ginger Baker - Drums, Percussion

Exact Audio Copy V1.0 beta 3 from 29. August 2011

EAC extraction logfile from 2. August 2017, 18:35

Bruce Baker Moore / Around The Next Dream

Used drive : PLEXTOR DVDR PX-L890SA Adapter: 3 ID: 1

Read mode : Secure
Utilize accurate stream : Yes
Defeat audio cache : Yes
Make use of C2 pointers : No

Read offset correction : 6
Overread into Lead-In and Lead-Out : No
Fill up missing offset samples with silence : Yes
Delete leading and trailing silent blocks : No
Null samples used in CRC calculations : Yes
Used interface : Native Win32 interface for Win NT & 2000

Used output format : User Defined Encoder
Selected bitrate : 768 kBit/s
Quality : High
Add ID3 tag : No
Command line compressor : C:\Program Files (x86)\Exact Audio Copy\Flac\flac.exe
Additional command line options : -V -8 -T "Date=%year%" -T "Genre=%genre%" %source%


TOC of the extracted CD

Track | Start | Length | Start sector | End sector
––––––––––––––––––––––––––––-
1 | 0:00.00 | 3:46.05 | 0 | 16954
2 | 3:46.05 | 3:57.20 | 16955 | 34749
3 | 7:43.25 | 5:22.50 | 34750 | 58949
4 | 13:06.00 | 5:18.32 | 58950 | 82831
5 | 18:24.32 | 5:43.10 | 82832 | 108566
6 | 24:07.42 | 4:23.05 | 108567 | 128296
7 | 28:30.47 | 8:27.38 | 128297 | 166359
8 | 36:58.10 | 6:12.30 | 166360 | 194289
9 | 43:10.40 | 4:59.20 | 194290 | 216734
10 | 48:09.60 | 4:04.20 | 216735 | 235054
11 | 52:14.05 | 5:59.47 | 235055 | 262026
12 | 58:13.52 | 7:52.35 | 262027 | 297461
13 | 66:06.12 | 6:21.43 | 297462 | 326079
14 | 72:27.55 | 5:08.10 | 326080 | 349189


Range status and errors

Selected range

Filename H:\MUSIC\1994. BBM - Around The Next Dream (Virgin 7243 5 83673 2 4, EU)\Bruce Baker Moore - Around The Next Dream.wav

Peak level 99.2 %
Extraction speed 10.3 X
Range quality 100.0 %
Test CRC E76702C0
Copy CRC E76702C0
Copy OK

No errors occurred


AccurateRip summary

Track 1 cannot be verified as accurate (confidence 14) [0CF6D9E0], AccurateRip returned [03DBD901] (AR v2)
Track 2 cannot be verified as accurate (confidence 14) [2556AF29], AccurateRip returned [40421409] (AR v2)
Track 3 cannot be verified as accurate (confidence 14) [E080065D], AccurateRip returned [73201EE3] (AR v2)
Track 4 cannot be verified as accurate (confidence 14) [EE4FC312], AccurateRip returned [52DDA20B] (AR v2)
Track 5 cannot be verified as accurate (confidence 14) [3AE6E7FB], AccurateRip returned [406B764A] (AR v2)
Track 6 cannot be verified as accurate (confidence 14) [453EB06A], AccurateRip returned [56476F51] (AR v2)
Track 7 cannot be verified as accurate (confidence 14) [BAB8F243], AccurateRip returned [08F4A78E] (AR v2)
Track 8 cannot be verified as accurate (confidence 14) [70694CBF], AccurateRip returned [369AA967] (AR v2)
Track 9 cannot be verified as accurate (confidence 14) [C06564FF], AccurateRip returned [0A88DB6D] (AR v2)
Track 10 cannot be verified as accurate (confidence 14) [489A59A7], AccurateRip returned [DE5D802C] (AR v2)
Track 11 cannot be verified as accurate (confidence 14) [B2DF9B84], AccurateRip returned [CD83FD6F] (AR v2)
Track 12 cannot be verified as accurate (confidence 14) [C67328BC], AccurateRip returned [E87431B7] (AR v2)
Track 13 cannot be verified as accurate (confidence 14) [ECF3E17E], AccurateRip returned [529F6537] (AR v2)
Track 14 cannot be verified as accurate (confidence 14) [58977E94], AccurateRip returned [3E193C9B] (AR v2)

No tracks could be verified as accurate
You may have a different pressing from the one(s) in the database

End of status report

==== Log checksum B0AEED8766A986334CEE04C91C3BCDFF70AB360571334DD14BF30261558B810A ====

foobar2000 1.2.6 / Dynamic Range Meter 1.1.1
log date: 2017-08-03 00:00:36

––––––––––––––––––––––––––––––––––––––––
Analyzed: Bruce Baker Moore / Around The Next Dream
––––––––––––––––––––––––––––––––––––––––

DR Peak RMS Duration Track
––––––––––––––––––––––––––––––––––––––––
DR9 -0.07 dB -10.92 dB 3:46 01-Waiting In The Wings
DR9 -0.08 dB -10.29 dB 3:57 02-City Of Gold
DR10 -0.07 dB -11.51 dB 5:23 03-Where In The World
DR10 -0.07 dB -10.64 dB 5:18 04-Can't Fool The Blues
DR11 -0.07 dB -12.19 dB 5:43 05-High Cost Of Loving
DR9 -0.08 dB -9.62 dB 4:23 06-Glory Days
DR9 -0.07 dB -10.46 dB 8:28 07-Why Does Love (Have To Go Wrong)?
DR11 -0.08 dB -12.41 dB 6:12 08-Naked Flame
DR10 -0.07 dB -10.91 dB 4:59 09-I Wonder Why (Are You So Mean To Me?)
DR10 -1.11 dB -13.13 dB 4:04 10-Wrong Side Of Town
DR10 -0.07 dB -10.90 dB 6:00 11-Danger Zone (Bonus Tracks)
DR12 -0.08 dB -13.09 dB 7:52 12-The World Keeps On Turnin'
DR11 -0.08 dB -12.97 dB 6:22 13-Sitting On Top Of The World
DR12 -0.07 dB -13.12 dB 5:08 14-I Wonder Why (Are You So Mean To Me?)
––––––––––––––––––––––––––––––––––––––––

Number of tracks: 14
Official DR value: DR10

Samplerate: 44100 Hz
Channels: 2
Bits per sample: 16
Bitrate: 959 kbps
Codec: FLAC
================================================================================

[CUETools log; Date: 03.08.2017 0:00:36; Version: 2.1.5]
[CTDB TOCID: vyMot1lvBn2R14PUkR6..EWefwg-] found.
Track | CTDB Status
1 | (40/54) Accurately ripped
2 | (39/54) Accurately ripped
3 | (39/54) Accurately ripped
4 | (39/54) Accurately ripped
5 | (40/54) Accurately ripped
6 | (39/54) Accurately ripped
7 | (40/54) Accurately ripped
8 | (40/54) Accurately ripped
9 | (40/54) Accurately ripped
10 | (40/54) Accurately ripped
11 | (40/54) Accurately ripped
12 | (39/54) Accurately ripped
13 | (40/54) Accurately ripped
14 | (41/54) Accurately ripped
[AccurateRip ID: 0025cdee-019bbf9b-d5122f0e] found.
Track [ CRC | V2 ] Status
01 [4611b1d5|0cf6d9e0] (00+00/59) No match
02 [323d09c0|2556af29] (00+00/58) No match
03 [d41a2b98|e080065d] (00+00/58) No match
04 [33ed28ce|ee4fc312] (00+00/58) No match
05 [5bd08fc5|3ae6e7fb] (00+00/58) No match
06 [c7af3a60|453eb06a] (00+00/58) No match
07 [944c9c36|bab8f243] (00+00/58) No match
08 [b04e6ca3|70694cbf] (00+00/58) No match
09 [12e84b2b|c06564ff] (00+00/57) No match
10 [1efd2cc3|489a59a7] (00+00/58) No match
11 [65724266|b2df9b84] (00+00/58) No match
12 [464236b4|c67328bc] (00+00/58) No match
13 [9c894ba3|ecf3e17e] (00+00/58) No match
14 [e1934800|58977e94] (00+00/58) No match
Offsetted by -21:
01 [f0bcffc6] (04/59) Accurately ripped
02 [25a83d67] (04/58) Accurately ripped
03 [bf90e5fe] (04/58) Accurately ripped
04 [0ae34cf8] (04/58) Accurately ripped
05 [42d9d849] (04/58) Accurately ripped
06 [563588ba] (04/58) Accurately ripped
07 [9009ed5b] (04/58) Accurately ripped
08 [1013d56b] (04/58) Accurately ripped
09 [d1534673] (04/57) Accurately ripped
10 [85a495a4] (04/58) Accurately ripped
11 [6471c498] (04/58) Accurately ripped
12 [8fb4ebf7] (04/58) Accurately ripped
13 [cbec6beb] (04/58) Accurately ripped
14 [356c1b51] (04/58) Accurately ripped
Offsetted by 652:
01 [c497058b] (02/59) Accurately ripped
02 [fa40c1b6] (02/58) Accurately ripped
03 [812fa951] (02/58) Accurately ripped
04 [8b47c143] (02/58) Accurately ripped
05 [4d8aa138] (02/58) Accurately ripped
06 [bd2f29f0] (02/58) Accurately ripped
07 [fc25c5cd] (02/58) Accurately ripped
08 [02a563fd] (02/58) Accurately ripped
09 [71e3d95a] (02/57) Accurately ripped
10 [9624a139] (02/58) Accurately ripped
11 [7d9a4a8b] (02/58) Accurately ripped
12 [7b96f4e2] (02/58) Accurately ripped
13 [3858a7ff] (02/58) Accurately ripped
14 [11c282a6] (02/58) Accurately ripped
Offsetted by 655:
01 [df2db660] (12/59) Accurately ripped
02 [afcd4661] (11/58) Accurately ripped
03 [52134647] (11/58) Accurately ripped
04 [faddfef7] (11/58) Accurately ripped
05 [e3223bc3] (11/58) Accurately ripped
06 [ae438e2d] (11/58) Accurately ripped
07 [aaa834e6] (11/58) Accurately ripped
08 [5b6a0a17] (11/58) Accurately ripped
09 [b00499d2] (10/57) Accurately ripped
10 [a9bc5c91] (11/58) Accurately ripped
11 [7dce36e1] (11/58) Accurately ripped
12 [881d4747] (11/58) Accurately ripped
13 [26033754] (11/58) Accurately ripped
14 [e4661b2b] (11/58) Accurately ripped
Offsetted by -453:
01 [14a11387] (00/59) No match (V2 was not tested)
02 [cbef5a77] (00/58) No match (V2 was not tested)
03 [47acef2a] (00/58) No match (V2 was not tested)
04 [4d2aec0b] (00/58) No match (V2 was not tested)
05 [c3f484c8] (00/58) No match (V2 was not tested)
06 [5b8ef49a] (00/58) No match (V2 was not tested)
07 [41a5e1a4] (00/58) No match (V2 was not tested)
08 [8f65c5fe] (00/58) No match (V2 was not tested)
09 [3cb99393] (00/57) No match (V2 was not tested)
10 [87b2c8cc] (00/58) No match (V2 was not tested)
11 [871a5915] (00/58) No match (V2 was not tested)
12 [5846c7de] (00/58) No match (V2 was not tested)
13 [083f3d68] (00/58) No match (V2 was not tested)
14 [30d03a45] (00/58) No match (V2 was not tested)
Offsetted by 607:
01 [490071e1] (00/59) No match (V2 was not tested)
02 [584cfe9d] (00/58) No match (V2 was not tested)
03 [7d465f6b] (00/58) No match (V2 was not tested)
04 [a324c92c] (00/58) No match (V2 was not tested)
05 [6bd20fe7] (00/58) No match (V2 was not tested)
06 [e0252317] (00/58) No match (V2 was not tested)
07 [f4bf6b07] (00/58) No match (V2 was not tested)
08 [7ecf783b] (00/58) No match (V2 was not tested)
09 [6dbeccc1] (00/57) No match (V2 was not tested)
10 [bec338af] (00/58) No match (V2 was not tested)
11 [93a14c89] (00/58) No match (V2 was not tested)
12 [7f6e025d] (00/58) No match (V2 was not tested)
13 [1ea58628] (00/58) No match (V2 was not tested)
14 [bb9692ff] (00/58) No match (V2 was not tested)

Track Peak [ CRC32 ] [W/O NULL] [ LOG ]
– 99,2 [E76702C0] [66093715] CRC32
01 99,2 [D782E712] [6C575996]
02 99,1 [077ADBD6] [53A5F139]
03 99,1 [F706E365] [27EF9430]
04 99,2 [57F38040] [D540EC8F]
05 99,1 [EBC95722] [1561D39F]
06 99,0 [F97C6A71] [62ABE6F0]
07 99,2 [44B8597E] [5E38AD2A]
08 99,1 [136617A1] [9D907CBF]
09 99,2 [0E12B916] [5CACA1C0]
10 88,0 [7252F8D1] [2D74B81E]
11 99,2 [765511E3] [A1A78828]
12 99,1 [0CA55C8C] [BADB2B6C]
13 99,1 [FFA199A1] [E2A1CE7E]
14 99,1 [8E4F952A] [A4F5450F]

BBM - Around The Next Dream (1994) {2003, Remastered & Expanded}


See also:

BBM - Around The Next Dream (1994) {1998, Japanese Reissue}

All thanks go to snakesharmer

>>> My Blog <<<

DOWNLOAD: