Subcategories

B.B. King - Live At The Apollo (1991) [Reissue 2008]

Posted By: gribovar
B.B. King - Live At The Apollo (1991) [Reissue 2008]

B.B. King - Live At The Apollo (1991) [Reissue 2008]
EAC Rip | FLAC (image+.cue+log) - 298 MB | MP3 CBR 320 kbps (LAME 3.93) - 109 MB | Covers (4 MB) included
Genre: Blues | RAR 3% Rec. | Label: Verve Records (0602517655102)

There are both good and bad points to this CD. Of the latter, the Phillip Morris "Super Band" is confined to background work with - other than a few spots for Plas Johnson's tenor - no soloists being heard from. As an ensemble, the all-star orchestra performs well, but is essentially anonymous. Also, despite the backing, B.B. King does not attempt to play jazz, a wasted opportunity. But, switching to the good points, Live at the Apollo is an excellent example of a strong B.B. King live performance. Somehow he always makes his combination of blues and familiar hits sound fresh. With a liberal amount of space set aside for his guitar solos, B.B. is in top form throughout the well-paced set, which is far superior to most of his overproduced studio sessions for MCA. Even if the big band is mostly irrelevant, this CD is recommended for B.B. King's singing and playing.
Tracklist:
01. When Love Comes To Town
02. Sweet Sixteen
03. The Thrill Is Gone
04. Ain't Nobody's Bizness
05. Paying The Cost To Be The Boss
06. All Over Again
07. Nightlife
08. Since I Met You Baby
09. Guess Who
10. Peace To The World

Total time: 44:30

Exact Audio Copy V0.99 prebeta 4 from 23. January 2008

EAC extraction logfile from 8. October 2008, 22:31

B.B. King / Live At The Apollo

Used drive : LITE-ON CD-RW SOHR-5238S Adapter: 1 ID: 1

Read mode : Secure
Utilize accurate stream : Yes
Defeat audio cache : Yes
Make use of C2 pointers : No

Read offset correction : 6
Overread into Lead-In and Lead-Out : No
Fill up missing offset samples with silence : Yes
Delete leading and trailing silent blocks : No
Null samples used in CRC calculations : Yes
Used interface : Installed external ASPI interface

Used output format : Internal WAV Routines
Sample format : 44.100 Hz; 16 Bit; Stereo


TOC of the extracted CD

Track | Start | Length | Start sector | End sector
––––––––––––––––––––––––––––-
1 | 0:00.00 | 4:52.67 | 0 | 21966
2 | 4:52.67 | 7:25.15 | 21967 | 55356
3 | 12:18.07 | 3:33.19 | 55357 | 71350
4 | 15:51.26 | 2:43.34 | 71351 | 83609
5 | 18:34.60 | 2:29.48 | 83610 | 94832
6 | 21:04.33 | 7:33.05 | 94833 | 128812
7 | 28:37.38 | 4:03.09 | 128813 | 147046
8 | 32:40.47 | 3:55.13 | 147047 | 164684
9 | 36:35.60 | 5:03.27 | 164685 | 187436
10 | 41:39.12 | 2:50.38 | 187437 | 200224


Range status and errors

Selected range

Filename I:\rips\BBK LA\B.B. King - Live At The Apollo.wav

Peak level 91.5 %
Range quality 100.0 %
Test CRC AB8A8AF7
Copy CRC AB8A8AF7
Copy OK

No errors occurred

End of status report

[CUETools log; Date: 12.12.2017 22:43:26; Version: 2.1.4]
[CTDB TOCID: kqH125RFOXLSoVQh1Gg1RL4dex8-] found.
Track | CTDB Status
1 | (49/49) Accurately ripped
2 | (49/49) Accurately ripped
3 | (49/49) Accurately ripped
4 | (49/49) Accurately ripped
5 | (49/49) Accurately ripped
6 | (49/49) Accurately ripped
7 | (49/49) Accurately ripped
8 | (49/49) Accurately ripped
9 | (49/49) Accurately ripped
10 | (48/49) Accurately ripped
[AccurateRip ID: 0011a0fd-008b272f-840a6d0a] found.
Track [ CRC | V2 ] Status
01 [b7334625|1e10edce] (13+23/36) Accurately ripped
02 [72d7c8fd|fb0b097f] (13+23/36) Accurately ripped
03 [df40584b|4d8d0f3f] (13+23/36) Accurately ripped
04 [bf0c441d|c84aa8dc] (13+23/36) Accurately ripped
05 [c01c1dbe|3b041fa5] (13+23/36) Accurately ripped
06 [987c2959|08261408] (13+23/36) Accurately ripped
07 [6268c6bc|11357aec] (13+23/36) Accurately ripped
08 [624e4a64|f08765c4] (13+23/36) Accurately ripped
09 [6e81dd7f|184d4d0a] (13+23/36) Accurately ripped
10 [94a04345|83d4e76e] (13+23/36) Accurately ripped

Track Peak [ CRC32 ] [W/O NULL] [ LOG ]
– 91,5 [AB8A8AF7] [170C4302] CRC32
01 90,9 [757D1C81] [0FEC6E2C]
02 91,1 [E4C80954] [BFF2E3AC]
03 90,8 [43C53DF7] [5D3BBC54]
04 91,5 [936D9AB9] [2473A34E]
05 91,1 [7A9B3FA6] [42212F8F]
06 90,6 [4212E61C] [7E489DCD]
07 90,9 [8BFB78C8] [55DBF9FE]
08 91,0 [3F489CE2] [FE3F994D]
09 88,7 [A8EF8B3D] [6D66AAA0]
10 90,9 [4D2AB8FB] [2CFB6DF0]

Thanks to the original releaser