Subcategories

VA - Bill Haney's Atlanta Southern Soul Brotherhood Vol. 2 (1999) {Kent}

Posted By: TestTickles
VA - Bill Haney's Atlanta Southern Soul Brotherhood Vol. 2 (1999) {Kent}

VA - Bill Haney's Atlanta Southern Soul Brotherhood Vol. 2 (1999) {Kent}
EAC Rip | FLAC with CUE and log | scans | 312 mb
MP3 CBR 320kbps | RAR | 135 mb
Genre: R&B, soul

Bill Haney's Atlanta Southern Soul Brotherhood Vol. 2 is a 1999 compilation album highlighting the production works of Atlanta producer Bill Haney and some of the music he released on his chain of record labels. This is the second of two volumes released by Kent that focused on Haney's works. If you would like to try out the first volume, please click here.

VA - Bill Haney's Atlanta Southern Soul Brotherhood Vol. 2 (1999) {Kent}

1. Joe Graham - I'm A Happy Man
2. Bobby Wilburn - I'm A Lonely Man
3. Randolph Walker - Pride And Soul
4. Gary Allen - Achin' All Over
5. Dino & Doc - A Woman Can't Do What A Man Do
6. Joe Graham - I've Been Blessed
7. Randolph Walker - Miss Jackson's Daughter
8. Al Christian - Bring It On Home To Me
9. Milton Marlin - Wasting My Life Loving You
10. Jerry Woodard - Something I Never Had
11. Randolph Walker - You'll Lose Your Love
12. Al Christian - He'll Have To Go
13. Arthur Alexander - You Ain't For Real
14. Jarvis Jackson - You Got Love
15. Dino & Doc - Love Is Sure
16. Jarvis Jackson - Show Me
17. Brenda Duff - Got To Get To Know You
18. Randolph Walker - 40 Love Street
19. Dino & Doc - Mighty Cold Winter
20. Randolph Walker - I Love Her More
21. Allan Collay - I'll Give You Time
22. Joe Graham - My Mary My Life
23. Jarvis Jackson - My Love Is True
24. Jimmy Pace - Stop My Heart From Crying
25. Gay Meadows & The Yobyalps - Only One
26. Charlie Thomas - Why'd You Have To Make The Little Girl Cry

Compiled by Adrian Croasdell & John Ridley
Mastered by Duncan Cowell

VA - Bill Haney's Atlanta Southern Soul Brotherhood Vol. 2 (1999) {Kent}


Exact Audio Copy V1.1 from 23. June 2015

EAC extraction logfile from 16. November 2016, 12:35

Various Artists / Bill Haney's Atlanta Southern Soul Brotherhood Vol. 2

Used drive : TEAC DVD-ROM DV-28SW Adapter: 1 ID: 0

Read mode : Secure
Utilize accurate stream : Yes
Defeat audio cache : Yes
Make use of C2 pointers : No

Read offset correction : 6
Overread into Lead-In and Lead-Out : No
Fill up missing offset samples with silence : Yes
Delete leading and trailing silent blocks : No
Null samples used in CRC calculations : Yes
Used interface : Native Win32 interface for Win NT & 2000
Gap handling : Appended to previous track

Used output format : Internal WAV Routines
Sample format : 44.100 Hz; 16 Bit; Stereo


TOC of the extracted CD

Track | Start | Length | Start sector | End sector
––––––––––––––––––––––––––––-
1 | 0:00.00 | 3:23.70 | 0 | 15294
2 | 3:23.70 | 2:42.00 | 15295 | 27444
3 | 6:05.70 | 2:24.27 | 27445 | 38271
4 | 8:30.22 | 2:25.35 | 38272 | 49181
5 | 10:55.57 | 2:29.30 | 49182 | 60386
6 | 13:25.12 | 2:35.38 | 60387 | 72049
7 | 16:00.50 | 2:11.12 | 72050 | 81886
8 | 18:11.62 | 2:31.48 | 81887 | 93259
9 | 20:43.35 | 2:56.55 | 93260 | 106514
10 | 23:40.15 | 2:44.70 | 106515 | 118884
11 | 26:25.10 | 3:17.15 | 118885 | 133674
12 | 29:42.25 | 2:50.45 | 133675 | 146469
13 | 32:32.70 | 2:28.35 | 146470 | 157604
14 | 35:01.30 | 2:24.32 | 157605 | 168436
15 | 37:25.62 | 2:16.20 | 168437 | 178656
16 | 39:42.07 | 2:04.58 | 178657 | 188014
17 | 41:46.65 | 2:40.17 | 188015 | 200031
18 | 44:27.07 | 2:16.50 | 200032 | 210281
19 | 46:43.57 | 2:38.63 | 210282 | 222194
20 | 49:22.45 | 2:16.22 | 222195 | 232416
21 | 51:38.67 | 2:44.38 | 232417 | 244754
22 | 54:23.30 | 2:44.52 | 244755 | 257106
23 | 57:08.07 | 3:15.43 | 257107 | 271774
24 | 60:23.50 | 2:11.32 | 271775 | 281631
25 | 62:35.07 | 2:18.45 | 281632 | 292026
26 | 64:53.52 | 2:40.08 | 292027 | 304034


Track 1

Filename C:\My Documents\My FLAC\VA - Bill Haney's Atlanta Southern Soul Brotherhood Vol. 2 (1999) [FLAC] {Kent}\01 - Joe Graham - I'm A Happy Man.wav

Pre-gap length 0:00:02.00

Peak level 98.5 %
Extraction speed 1.8 X
Track quality 100.0 %
Test CRC 34A04BA0
Copy CRC 34A04BA0
Accurately ripped (confidence 1) [1DB82DD4] (AR v2)
Copy OK

Track 2

Filename C:\My Documents\My FLAC\VA - Bill Haney's Atlanta Southern Soul Brotherhood Vol. 2 (1999) [FLAC] {Kent}\02 - Bobby Wilburn - I'm A Lonely Man.wav

Pre-gap length 0:00:00.43

Peak level 98.5 %
Extraction speed 1.6 X
Track quality 99.9 %
Test CRC B124D26A
Copy CRC B124D26A
Accurately ripped (confidence 1) [23D2999D] (AR v2)
Copy OK

Track 3

Filename C:\My Documents\My FLAC\VA - Bill Haney's Atlanta Southern Soul Brotherhood Vol. 2 (1999) [FLAC] {Kent}\03 - Randolph Walker - Pride And Soul.wav

Pre-gap length 0:00:00.60

Peak level 97.0 %
Extraction speed 1.9 X
Track quality 100.0 %
Test CRC C459FB7D
Copy CRC C459FB7D
Accurately ripped (confidence 1) [9F600B54] (AR v2)
Copy OK

Track 4

Filename C:\My Documents\My FLAC\VA - Bill Haney's Atlanta Southern Soul Brotherhood Vol. 2 (1999) [FLAC] {Kent}\04 - Gary Allen - Achin' All Over.wav

Pre-gap length 0:00:01.37

Peak level 97.8 %
Extraction speed 2.0 X
Track quality 100.0 %
Test CRC 54F0FA18
Copy CRC 54F0FA18
Accurately ripped (confidence 1) [8786587E] (AR v2)
Copy OK

Track 5

Filename C:\My Documents\My FLAC\VA - Bill Haney's Atlanta Southern Soul Brotherhood Vol. 2 (1999) [FLAC] {Kent}\05 - Dino & Doc - A Woman Can't Do (What A Man Do).wav

Pre-gap length 0:00:01.05

Peak level 99.8 %
Extraction speed 1.8 X
Track quality 99.9 %
Test CRC CC589BB9
Copy CRC CC589BB9
Accurately ripped (confidence 1) [548044DD] (AR v2)
Copy OK

Track 6

Filename C:\My Documents\My FLAC\VA - Bill Haney's Atlanta Southern Soul Brotherhood Vol. 2 (1999) [FLAC] {Kent}\06 - Joe Graham - I've Been Blessed.wav

Pre-gap length 0:00:00.12

Peak level 96.4 %
Extraction speed 2.2 X
Track quality 100.0 %
Test CRC 94E15E12
Copy CRC 94E15E12
Accurately ripped (confidence 1) [95795FF7] (AR v2)
Copy OK

Track 7

Filename C:\My Documents\My FLAC\VA - Bill Haney's Atlanta Southern Soul Brotherhood Vol. 2 (1999) [FLAC] {Kent}\07 - Randolph Walker - Miss Jackson's Daughter.wav

Pre-gap length 0:00:00.25

Peak level 92.4 %
Extraction speed 1.9 X
Track quality 99.9 %
Test CRC FD7718F4
Copy CRC FD7718F4
Accurately ripped (confidence 1) [6C0CD5A2] (AR v2)
Copy OK

Track 8

Filename C:\My Documents\My FLAC\VA - Bill Haney's Atlanta Southern Soul Brotherhood Vol. 2 (1999) [FLAC] {Kent}\08 - Al Christian - Bring It On Home To Me.wav

Pre-gap length 0:00:00.42

Peak level 99.3 %
Extraction speed 2.2 X
Track quality 100.0 %
Test CRC 75A2BA92
Copy CRC 75A2BA92
Accurately ripped (confidence 1) [5F5571D5] (AR v2)
Copy OK

Track 9

Filename C:\My Documents\My FLAC\VA - Bill Haney's Atlanta Southern Soul Brotherhood Vol. 2 (1999) [FLAC] {Kent}\09 - Milton Marlin - Wasting My Life Loving You.wav

Pre-gap length 0:00:01.45

Peak level 95.5 %
Extraction speed 2.2 X
Track quality 100.0 %
Test CRC D44F5CF9
Copy CRC D44F5CF9
Accurately ripped (confidence 1) [CC01D065] (AR v2)
Copy OK

Track 10

Filename C:\My Documents\My FLAC\VA - Bill Haney's Atlanta Southern Soul Brotherhood Vol. 2 (1999) [FLAC] {Kent}\10 - Jerry Woodard - Something I Never Had.wav

Pre-gap length 0:00:01.43

Peak level 93.0 %
Extraction speed 2.6 X
Track quality 100.0 %
Test CRC 64F6D2D6
Copy CRC 64F6D2D6
Accurately ripped (confidence 1) [5AE91378] (AR v2)
Copy OK

Track 11

Filename C:\My Documents\My FLAC\VA - Bill Haney's Atlanta Southern Soul Brotherhood Vol. 2 (1999) [FLAC] {Kent}\11 - Randolph Walker - You'll Lose Your Love.wav

Peak level 94.3 %
Extraction speed 2.4 X
Track quality 99.9 %
Test CRC 83EE899D
Copy CRC 83EE899D
Accurately ripped (confidence 1) [E403E530] (AR v2)
Copy OK

Track 12

Filename C:\My Documents\My FLAC\VA - Bill Haney's Atlanta Southern Soul Brotherhood Vol. 2 (1999) [FLAC] {Kent}\12 - Al Christian - He'll Have To Go.wav

Pre-gap length 0:00:00.65

Peak level 94.0 %
Extraction speed 2.6 X
Track quality 100.0 %
Test CRC E990C244
Copy CRC E990C244
Accurately ripped (confidence 1) [4B5EC35E] (AR v2)
Copy OK

Track 13

Filename C:\My Documents\My FLAC\VA - Bill Haney's Atlanta Southern Soul Brotherhood Vol. 2 (1999) [FLAC] {Kent}\13 - Arthur Alexander - You Ain't For Real.wav

Pre-gap length 0:00:01.20

Peak level 92.5 %
Extraction speed 2.7 X
Track quality 100.0 %
Test CRC 8C1A4ACD
Copy CRC 8C1A4ACD
Accurately ripped (confidence 1) [03EE5BB7] (AR v2)
Copy OK

Track 14

Filename C:\My Documents\My FLAC\VA - Bill Haney's Atlanta Southern Soul Brotherhood Vol. 2 (1999) [FLAC] {Kent}\14 - Jarvis Jackson - You Got Love.wav

Pre-gap length 0:00:00.63

Peak level 92.4 %
Extraction speed 1.9 X
Track quality 99.9 %
Test CRC 783154A5
Copy CRC 783154A5
Accurately ripped (confidence 1) [0608D614] (AR v2)
Copy OK

Track 15

Filename C:\My Documents\My FLAC\VA - Bill Haney's Atlanta Southern Soul Brotherhood Vol. 2 (1999) [FLAC] {Kent}\15 - Dino & Doc - Love Is Sure.wav

Pre-gap length 0:00:00.70

Peak level 98.7 %
Extraction speed 2.3 X
Track quality 100.0 %
Test CRC 8ADB2FAD
Copy CRC 8ADB2FAD
Accurately ripped (confidence 1) [B6E94338] (AR v2)
Copy OK

Track 16

Filename C:\My Documents\My FLAC\VA - Bill Haney's Atlanta Southern Soul Brotherhood Vol. 2 (1999) [FLAC] {Kent}\16 - Jarvis Jackson - Show Me.wav

Pre-gap length 0:00:00.52

Peak level 92.6 %
Extraction speed 2.9 X
Track quality 100.0 %
Test CRC E48D1797
Copy CRC E48D1797
Accurately ripped (confidence 1) [D4182C26] (AR v2)
Copy OK

Track 17

Filename C:\My Documents\My FLAC\VA - Bill Haney's Atlanta Southern Soul Brotherhood Vol. 2 (1999) [FLAC] {Kent}\17 - Brenda Duff - Got To Get To Know You.wav

Peak level 93.0 %
Extraction speed 3.1 X
Track quality 100.0 %
Test CRC 001A5074
Copy CRC 001A5074
Accurately ripped (confidence 1) [2A9FAD6D] (AR v2)
Copy OK

Track 18

Filename C:\My Documents\My FLAC\VA - Bill Haney's Atlanta Southern Soul Brotherhood Vol. 2 (1999) [FLAC] {Kent}\18 - Randolph Walker - 40 Love Street.wav

Pre-gap length 0:00:01.17

Peak level 94.6 %
Extraction speed 2.9 X
Track quality 100.0 %
Test CRC 041E5CCE
Copy CRC 041E5CCE
Accurately ripped (confidence 1) [D64F3483] (AR v2)
Copy OK

Track 19

Filename C:\My Documents\My FLAC\VA - Bill Haney's Atlanta Southern Soul Brotherhood Vol. 2 (1999) [FLAC] {Kent}\19 - Dino & Doc - Mighty Cold Winter.wav

Pre-gap length 0:00:00.47

Peak level 90.4 %
Extraction speed 3.2 X
Track quality 100.0 %
Test CRC F025E1F3
Copy CRC F025E1F3
Accurately ripped (confidence 1) [2E983E57] (AR v2)
Copy OK

Track 20

Filename C:\My Documents\My FLAC\VA - Bill Haney's Atlanta Southern Soul Brotherhood Vol. 2 (1999) [FLAC] {Kent}\20 - Randolph Walker - I Love Her More.wav

Pre-gap length 0:00:01.38

Peak level 99.2 %
Extraction speed 3.0 X
Track quality 100.0 %
Test CRC 4CCB3149
Copy CRC 4CCB3149
Accurately ripped (confidence 1) [5DB20B09] (AR v2)
Copy OK

Track 21

Filename C:\My Documents\My FLAC\VA - Bill Haney's Atlanta Southern Soul Brotherhood Vol. 2 (1999) [FLAC] {Kent}\21 - Allan Collay - I'll Give You Time.wav

Pre-gap length 0:00:01.62

Peak level 85.3 %
Extraction speed 3.4 X
Track quality 100.0 %
Test CRC 88A3AAA7
Copy CRC 88A3AAA7
Accurately ripped (confidence 1) [5CCA59DA] (AR v2)
Copy OK

Track 22

Filename C:\My Documents\My FLAC\VA - Bill Haney's Atlanta Southern Soul Brotherhood Vol. 2 (1999) [FLAC] {Kent}\22 - Joe Graham - My Mary My Life.wav

Pre-gap length 0:00:00.48

Peak level 99.8 %
Extraction speed 0.5 X
Track quality 99.6 %
Test CRC 1FF27F6E
Copy CRC 1FF27F6E
Accurately ripped (confidence 1) [267E5705] (AR v2)
Copy OK

Track 23

Filename C:\My Documents\My FLAC\VA - Bill Haney's Atlanta Southern Soul Brotherhood Vol. 2 (1999) [FLAC] {Kent}\23 - Jarvis Jackson - My Love Is True.wav

Pre-gap length 0:00:01.00

Peak level 99.8 %
Extraction speed 0.4 X
Track quality 99.7 %
Test CRC 5884CABB
Copy CRC 5884CABB
Accurately ripped (confidence 1) [C7E9CD36] (AR v2)
Copy OK

Track 24

Filename C:\My Documents\My FLAC\VA - Bill Haney's Atlanta Southern Soul Brotherhood Vol. 2 (1999) [FLAC] {Kent}\24 - Jimmy Pace - Stop My Heart From Crying.wav

Pre-gap length 0:00:02.30

Peak level 88.3 %
Extraction speed 0.5 X
Track quality 99.8 %
Test CRC 2A5F0FE2
Copy CRC 2A5F0FE2
Accurately ripped (confidence 1) [B0BCEBA5] (AR v2)
Copy OK

Track 25

Filename C:\My Documents\My FLAC\VA - Bill Haney's Atlanta Southern Soul Brotherhood Vol. 2 (1999) [FLAC] {Kent}\25 - Gay Meadows & The Yobyalps - Only One.wav

Pre-gap length 0:00:01.22

Peak level 88.6 %
Extraction speed 0.1 X
Track quality 99.1 %
Test CRC 3DE51BDA
Copy CRC 3DE51BDA
Accurately ripped (confidence 1) [77183BE6] (AR v2)
Copy OK

Track 26

Filename C:\My Documents\My FLAC\VA - Bill Haney's Atlanta Southern Soul Brotherhood Vol. 2 (1999) [FLAC] {Kent}\26 - Charlie Thomas - Why'd You Have To Make The Little Girl Cry.wav

Pre-gap length 0:00:01.05

Peak level 94.7 %
Extraction speed 0.3 X
Track quality 99.8 %
Test CRC AECDCC5D
Copy CRC AECDCC5D
Accurately ripped (confidence 1) [25D1E0AF] (AR v2)
Copy OK


26 track(s) accurately ripped


End of status report

–– CUETools DB Plugin V2.1.6

[CTDB TOCID: whwwT1TZCoJ3fl4XorokIzWBJf4-] disk not present in database
Submit result: whwwT1TZCoJ3fl4XorokIzWBJf4- has been uploaded


==== Log checksum 7599C5B04B84EDE5F453D3346B3DE3B1AF5802B92E66225CFBF08FE658CF57A6 ====


VA - Bill Haney's Atlanta Southern Soul Brotherhood Vol. 2 (1999) {Kent}
NITROFLARE (FLAC)
NITROFLARE (MP3)