Subcategories

Bachman-Turner Overdrive - Not Fragile (1974) [40th Anniversary 2014] Digipak, 2CD

Posted By: Andi_Deris
Bachman-Turner Overdrive - Not Fragile (1974) [40th Anniversary 2014] Digipak, 2CD

Bachman-Turner Overdrive - Not Fragile (1974) [40th Anniversary 2014] Digipak, 2CD
EAC Rip | FLAC: Image+Cue+Log | 547 Mb | MP3 CBR 320 kbps | 224 Mb | Scans | TTime: 01:10:10
Universal Music Canada | 0253776103
Rock, Classic Rock, Hard Rock

Canadian rock legends BACHMAN-TURNER OVERDRIVE will release a re-mastered, deluxe version of their highest selling album Not Fragile: 40th Anniversary Edition, via Universal Music Canada, the country’s leading music company. Originally released in 1974, the new release will be made available digitally, on a two CD expanded set and on re-mastered 180 gram vinyl on March 18.

Bachman-Turner Overdrive - Not Fragile (1974) [40th Anniversary 2014] Digipak, 2CD




Bachman-Turner Overdrive - Not Fragile (1974) [40th Anniversary 2014] Digipak, 2CD


CD1: Original Album

01. Not Fragile (4:06)
02. Rock Is My Life, And This Is My Song (5:02)
03. Roll On Down The Highway (4:00)
04. You Ain't Seen Nothing Yet (3:56)
05. Free Wheelin' (3:46)
06. Sledgehammer (4:32)
07. Blue Moanin' (3:46)
08. Second Hand (3:24)
09. Givin' It All Away (3:53)

Bachman-Turner Overdrive - Not Fragile (1974) [40th Anniversary 2014] Digipak, 2CD


CD2: Live Tracks

01. RB Rock Prelude (Live at the Oakbrook Forum - Chicago, August 1974) (4:23)
02. Not Fragile (Live at the Oakbrook Forum - Chicago, August 1974) (4:28)
03. Rock Is My Life, And This Is My Song (Live at the Oakbrook Forum - Chicago, August 1974) (5:13)
04. Sledgehammer (Live at the Misty Moon Club, Tallahassee, February 1985) (4:47)
05. Roll On Down The Highway (Live at the PNE, Vancouver, August 1975) (4:22)
06. You Ain't Seen Nothing Yet (Live from Budokan, Japan 1976) (3:27)
07. Slow Down Boogie (Live at the PNE, Vancouver, August 1975) (5:52)
08. Thank You (Live at the PNE, Vancouver, August 1975) (1:13)

Produced by Randy Bachman

The Band

• C.F. Turner - bass guitar and vocals
• Randy Bachman - lead guitar and vocals
• Blair Thornton - 2nd lead guitar and background vocals
• Rob Bachman - drums and percussion
• Frank Trowbridge - slide guitar (on "Blue Moanin'")

Notes

The band’s third album, “Not Fragile” went on to sell over 3.6 million copies worldwide, fueled by the strength of the smash single “You Ain’t Seen Nothing Yet”, a track not intended to make the album that shot to No. 1 in a dozen countries and Top 10 in a dozen more.

“'Not Fragile' was when it all came together for us,” says Randy Bachman. “We captured the album-oriented rock audience as well as the singles audience with that album. ‘Not Fragile’ made BTO recognized around the world. That was a milestone album and our crowning achievement.”

The reissue comes two weeks before Bachman-Turner Overdrive will be inducted into the Canadian Music Hall of Fame at the 2014 Juno Awards in their hometown of Winnipeg, Manitoba on March 30.

Exact Audio Copy V1.0 beta 3 from 29. August 2011

EAC extraction logfile from 19. March 2014, 17:26

Bachman-Turner Overdrive / Not Fragile (CD1)

Used drive : HL-DT-STDVDRAM GSA-H10N Adapter: 1 ID: 0

Read mode : Secure
Utilize accurate stream : Yes
Defeat audio cache : Yes
Make use of C2 pointers : No

Read offset correction : 667
Overread into Lead-In and Lead-Out : No
Fill up missing offset samples with silence : Yes
Delete leading and trailing silent blocks : No
Null samples used in CRC calculations : Yes
Used interface : Installed external ASPI interface

Used output format : User Defined Encoder
Selected bitrate : 192 kBit/s
Quality : High
Add ID3 tag : No
Command line compressor : C:\Program Files\Exact Audio Copy\Flac\flac.exe
Additional command line options : -8 -V -T "ARTIST=%artist%" -T "ALBUM=%albumtitle%" -T "DATE=%year%" -T "GENRE=%genre%" -T "COMMENT=EAC FLAC -8" %source%


TOC of the extracted CD

Track | Start | Length | Start sector | End sector
––––––––––––––––––––––––––––-
1 | 0:00.00 | 4:06.00 | 0 | 18449
2 | 4:06.00 | 5:01.71 | 18450 | 41095
3 | 9:07.71 | 4:00.35 | 41096 | 59130
4 | 13:08.31 | 3:56.56 | 59131 | 76886
5 | 17:05.12 | 3:46.09 | 76887 | 93845
6 | 20:51.21 | 4:32.63 | 93846 | 114308
7 | 25:24.09 | 3:46.04 | 114309 | 131262
8 | 29:10.13 | 3:24.57 | 131263 | 146619
9 | 32:34.70 | 3:53.00 | 146620 | 164094


Range status and errors

Selected range

Filename D:\BTO\Bachman-Turner Overdrive - Not Fragile (CD1).wav

Peak level 97.9 %
Extraction speed 4.1 X
Range quality 100.0 %
Test CRC 9703C18C
Copy CRC 9703C18C
Copy OK

No errors occurred


AccurateRip summary

Track 1 not present in database
Track 2 not present in database
Track 3 not present in database
Track 4 not present in database
Track 5 not present in database
Track 6 not present in database
Track 7 not present in database
Track 8 not present in database
Track 9 not present in database

None of the tracks are present in the AccurateRip database

End of status report

==== Log checksum 15BD64FAC512CE7ABD98F810D7D3FB97B18D825EDA421A25578A4883086B2D37 ====

Exact Audio Copy V1.0 beta 3 from 29. August 2011

EAC extraction logfile from 19. March 2014, 17:56

Bachman-Turner Overdrive / Not Fragile (CD2)

Used drive : HL-DT-STDVDRAM GSA-H10N Adapter: 1 ID: 0

Read mode : Secure
Utilize accurate stream : Yes
Defeat audio cache : Yes
Make use of C2 pointers : No

Read offset correction : 667
Overread into Lead-In and Lead-Out : No
Fill up missing offset samples with silence : Yes
Delete leading and trailing silent blocks : No
Null samples used in CRC calculations : Yes
Used interface : Installed external ASPI interface

Used output format : User Defined Encoder
Selected bitrate : 192 kBit/s
Quality : High
Add ID3 tag : No
Command line compressor : C:\Program Files\Exact Audio Copy\Flac\flac.exe
Additional command line options : -8 -V -T "ARTIST=%artist%" -T "ALBUM=%albumtitle%" -T "DATE=%year%" -T "GENRE=%genre%" -T "COMMENT=EAC FLAC -8" %source%


TOC of the extracted CD

Track | Start | Length | Start sector | End sector
––––––––––––––––––––––––––––-
1 | 0:00.00 | 4:23.16 | 0 | 19740
2 | 4:23.16 | 4:28.38 | 19741 | 39878
3 | 8:51.54 | 5:13.01 | 39879 | 63354
4 | 14:04.55 | 4:47.38 | 63355 | 84917
5 | 18:52.18 | 4:21.70 | 84918 | 104562
6 | 23:14.13 | 3:27.38 | 104563 | 120125
7 | 26:41.51 | 5:52.63 | 120126 | 146588
8 | 32:34.39 | 1:13.50 | 146589 | 152113


Range status and errors

Selected range

Filename D:\BTO\Bachman-Turner Overdrive - Not Fragile (CD2).wav

Peak level 98.8 %
Extraction speed 3.9 X
Range quality 99.9 %
Test CRC 71013F08
Copy CRC 71013F08
Copy OK

No errors occurred


AccurateRip summary

Track 1 not present in database
Track 2 not present in database
Track 3 not present in database
Track 4 not present in database
Track 5 not present in database
Track 6 not present in database
Track 7 not present in database
Track 8 not present in database

None of the tracks are present in the AccurateRip database

End of status report

==== Log checksum 5AA457BAD4BFAEA8FB7B9C9F613B080A0B1219C868947758422C2F82E303B606 ====


Many thanks to the original uploader: erro

SEE also:
Brave Belt 2001 Brave Belt I (1971) / Brave Belt II (1972) [Re-Mastered]