Subcategories

B.B. King: Live at the Royal Albert Hall (2011) [BDRip 1080p]

Posted By: juanchito
B.B. King: Live at the Royal Albert Hall (2011) [BDRip 1080p]

B.B. King: Live at the Royal Albert Hall (2011)
BDRip 1080p | MKV | MPEG4 AVC 12.9 Mbps 1920*1080 pixels / 16:9 / 23.976 fps / High@L4.1 | 7.95 GB
Audio: English DTS 1510 Kbps 6 channels / Front: L C R, Side: L R, LFE / 48.0 KHz / 24 bits
Genre: Blues | Length: 01:20:00 | Nitroflare/Uploadable


On June 28, 2011, the “King of the Blues” B.B. King played to an adoring sold-out crowd at London’s spectacular Royal Albert Hall. It was another unforgettable night in the career of one of the most legendary bluesmen to ever pick up a guitar.
Joining the illustrious Mr. King onstage were guitar virtuoso Derek Trucks, “songbird extraordinaire” Susan Tedeschi, The Rolling Stones’ Ronnie Wood, Simply Red’s Mick Hucknall and former Guns N’ Roses axeman Slash.
B.B. and friends delighted the London crowd with favorites “I Need You So,” “Key To The Highway” and “The Thrill Is Gone,” trading solos, verses and endless admiration. The magical evening concluded with everyone onstage participating in a rousing rendition of “When The Saints Go Marching In.”

B.B. King: Live at the Royal Albert Hall (2011) [BDRip 1080p]

B.B. King: Live at the Royal Albert Hall (2011) [BDRip 1080p]

B.B. King: Live at the Royal Albert Hall (2011) [BDRip 1080p]

B.B. King: Live at the Royal Albert Hall (2011) [BDRip 1080p]


Tracklist
I Need You So
Key To The Highway
See That My Grave Is Kept Clean
All Over Again
Rock Me Baby
You Are My Sunshine
B.B. Jams With Guests
The Thrill Is Gone
Guess Who
When The Saints Go Marching In


General
Unique ID : 202880900437843227853197864078329526057 (0x98A170AC57DCFB5898A56A6811B83729)
Complete name : B.B.King.Live.at.The.Royal.Albert.Hall.2011.BluRay.1080p.x264-MySiLU.mkv
Format : Matroska
Format version : Version 2
File size : 7.95 GiB
Duration : 1h 20mn
Overall bit rate : 14.2 Mbps
Encoded date : UTC 2012-03-20 09:01:32
Writing application : mkvmerge v5.1.0 ('And so it goes') built on Nov 28 2011 23:58:28
Writing library : libebml v1.2.3 + libmatroska v1.3.0

Video
ID : 1
Format : AVC
Format/Info : Advanced Video Codec
Format profile : High@L4.1
Format settings, CABAC : Yes
Format settings, ReFrames : 4 frames
Muxing mode : Header stripping
Codec ID : V_MPEG4/ISO/AVC
Duration : 1h 20mn
Bit rate : 12.9 Mbps
Width : 1 920 pixels
Height : 1 080 pixels
Display aspect ratio : 16:9
Frame rate : 23.976 fps
Color space : YUV
Chroma subsampling : 4:2:0
Bit depth : 8 bits
Scan type : Progressive
Bits/(Pixel*Frame) : 0.259
Stream size : 6.95 GiB (87%)
Writing library : x264 core 116 r2074 2641b9e
Encoding settings : cabac=1 / ref=4 / deblock=1:-3:-3 / analyse=0x3:0x133 / me=umh / subme=10 / psy=1 / psy_rd=1.10:0.15 / mixed_ref=1 / me_range=32 / chroma_me=1 / trellis=2 / 8x8dct=1 / cqm=0 / deadzone=21,11 / fast_pskip=1 / chroma_qp_offset=-3 / threads=12 / sliced_threads=0 / nr=0 / decimate=1 / interlaced=0 / bluray_compat=0 / constrained_intra=0 / bframes=5 / b_pyramid=2 / b_adapt=2 / b_bias=0 / direct=3 / weightb=1 / open_gop=0 / weightp=2 / keyint=240 / keyint_min=23 / scenecut=60 / intra_refresh=0 / rc_lookahead=60 / rc=2pass / mbtree=1 / bitrate=12879 / ratetol=1.0 / qcomp=0.70 / qpmin=0 / qpmax=69 / qpstep=4 / cplxblur=20.0 / qblur=0.5 / vbv_maxrate=40000 / vbv_bufsize=40000 / nal_hrd=none / ip_ratio=1.20 / aq=1:1.00
Language : English
Default : Yes
Forced : No

Audio
ID : 2
Format : DTS
Format/Info : Digital Theater Systems
Muxing mode : Header stripping
Codec ID : A_DTS
Duration : 1h 20mn
Bit rate mode : Constant
Bit rate : 1 510 Kbps
Channel(s) : 6 channels
Channel positions : Front: L C R, Side: L R, LFE
Sampling rate : 48.0 KHz
Bit depth : 24 bits
Compression mode : Lossy
Stream size : 866 MiB (11%)
Language : English
Default : Yes
Forced : No

Menu
00:00:00.000 : :00:00:00.000
00:04:00.207 : :00:04:00.207
00:09:20.360 : :00:09:20.360
00:16:22.081 : :00:16:22.081
00:19:06.579 : :00:19:06.579
00:24:46.952 : :00:24:46.952
00:33:54.599 : :00:33:54.599
00:40:57.455 : :00:40:57.455
00:56:15.005 : :00:56:15.005
01:04:22.926 : :01:04:22.926
01:10:51.714 : :01:10:51.714




Thanks to the original uploader