Subcategories

Bach - Variations canoniques; Les Chorales de Leipzig, BWV 769, 651-668 (Hans Vollenweider) [1995] *Re-Up*

Posted By: Aregak
Bach - Variations canoniques; Les Chorales de Leipzig, BWV 769, 651-668 (Hans Vollenweider) [1995] *Re-Up*

Bach - Variations canoniques; Les Chorales de Leipzig, BWV 769, 651-668 (Hans Vollenweider) [1995]
EAC Rip | FLAC, IMG+CUE, LOG | Covers | 2cd, 547 MB
Classical | Label: Accord | Catalog Number: 149514 | TT: CD1: 53’07, CD2: 53’55

It’s now time for a release with the famous German organist Helmut Walcha. This is the first of initially 4 releases with Walcha playing J. S. Bach. He recorded the complete works by J. S. Bach twice, from 1947-1950 in mono on the Schnitger organ in Cappel and in St. Jakobi in Lübeck and 1956-1971 on the famous organ in Alkmaar. This release is from the Alkmaar serie and is therefore in stereo. A quite interesting thing is to compare it with the IHORC14 release, where Fernando Germani plays the exact same organ about two years later.

The next part is from Wikipedia:
Helmut Walcha (October 27, 1907 in Leipzig, Germany – August 11, 1991 in Frankfurt am Main, Germany) was a blind German organist who specialized in the works of the Dutch and German baroque masters and is known for his recordings of the complete organ works of Johann Sebastian Bach. And whom, despite being blinded at 19 by smallpox, is considered one of the great teachers and performers of the organ during the 20th century.

Born in Leipzig, Walcha was blinded at age 19 after vaccination for smallpox. Despite his disability, he entered the Leipzig Conservatory and became an assistant at the Thomaskirche to Günther Ramin, who was professor of organ at the conservatory and cantor at St. Thomas'. In 1929, Walcha accepted a position in Frankfurt am Main at the Friedenskirche and remained in Frankfurt for the rest of his life. From 1933 to 1938 he taught at the Hoch Conservatory. In 1938 he was appointed professor of organ at the Musikhochschule in Frankfurt and organist of the Dreikönigskirche in 1946. He retired from public performance in 1981.

Walcha recorded Bach's complete works twice, once in mono (1947-52), and again in stereo from 1956-71. This latter stereo cycle (released 10/09/2001), has been remastered, and repackaged in an economical collector's edition 12-CD box. This edition also contains the recording of his own conclusion of the last fugue of The Art of Fugue - previously unreleased.

Walcha also composed for the organ. He published four volumes of original chorale preludes (published by C. F. Peters and recorded in part by, for example, Renate Meierjürgen) as well as arrangements for organ of orchestral works written by others.

He lectured on organ music and composition (illustrated by his own playing) at the Hoch Conservatory and the Frankfurt Musikhochschule. One other contribution to music scholarship is his attempted completion of the final (unfinished) fugue of The Art of Fugue.

Compared to our modern style, he tends towards slow tempi and a modern listener might find his playing a bit boring, but I think Helmut Walchas organ playing is always profoundly musical and his melodic lines are very beautifully shaped – like all the other organists and musicians who had their performance style founded in the romantic period. You can find the layout of the Alkmaar organ in the IHORC-14 release. One interesting anecdote is that, due to his blindness, he learned organ pieces by having the right hand, left hand and pedal part played separately twice while listnening and then he was able to play it all together!

I would like to send thanks again to Claus Byrith for providing and transferring the original 1956 LP.
Performer:
Hans Vollenweider - Organ

Tracklisting:
CD1
1. Vom himmel hoch, da komm ich her, BWV 769 (12:14)
2. Fantasia super Komm, Heiliger Geist, BWV 651 (6:04)
3. Komm Heiliger Geist, BWV 652 (9:06)
4. An Wasswerflussen Babylon, BWV 653 (5:07)
5. Schmucke Dich, O Liebe Seele, BWV 654 (8:25)
6. Trio super Herr Jesu Christ, Dich zu Uns Wend, BWV 655 (3:58)
7. O Lamm Gottes, Unschuldig, BWV 656 (8:13)

CD2
1. Nun Danket Alle Gott, BWV 657 (4:55)
2. Von Gott Will Ich Nicht Lassen, BWV 658 (3:53)
3. Nun Komm, Der Heiden Heiland, BWV 659 (5:04)
4. Trio super Nun Komm, Der Heiden Heiland, BWV 660 (3:04)
5. Nun Komm, Der Heiden Heiland, BWV 661 (2:47)
6. Allein Gott in Der Hoh Sei Ehr, BWV 662 (7:20)
7. Allein Gott in Der Hoh Sei Ehr, BWV 663 (7:27)
8. Trio super Allein Gott in Der Hoh Sei Ehr, BWV 664 (4:57)
9. Jesus Christus, Unser Heiland, BWV 665 (4:25)
10. Jesus Christus, Unser Heiland, BWV 666 (3:04)
11. Komm, Gott, Schopfer, Heiliger Geist, BWV 667 (2:13)
12. Vor Deinen Thron Tret'ich Hiermit, BWV 668 (4:46)

Exact Audio Copy V1.0 beta 3 from 29. August 2011

EAC extraction logfile from 20. January 2014, 22:53

Hans Vollenweider / Bach - Organ Chorale (Leipzig) - CD1

Used drive : ATAPI iHAS122 C Adapter: 0 ID: 1

Read mode : Secure
Utilize accurate stream : Yes
Defeat audio cache : Yes
Make use of C2 pointers : No

Read offset correction : 6
Overread into Lead-In and Lead-Out : No
Fill up missing offset samples with silence : Yes
Delete leading and trailing silent blocks : No
Null samples used in CRC calculations : Yes
Used interface : Installed external ASPI interface

Used output format : User Defined Encoder
Selected bitrate : 192 kBit/s
Quality : High
Add ID3 tag : No
Command line compressor : C:\Program Files\Exact Audio Copy\Flac\flac.exe
Additional command line options : -V -8 -T "Date=%year%" -T "Genre=%genre%" %source%


TOC of the extracted CD

Track | Start | Length | Start sector | End sector
––––––––––––––––––––––––––––-
1 | 0:00.32 | 12:18.35 | 32 | 55416
2 | 12:18.67 | 6:04.58 | 55417 | 82774
3 | 18:23.50 | 9:07.60 | 82775 | 123859
4 | 27:31.35 | 5:12.62 | 123860 | 147321
5 | 32:44.22 | 8:33.55 | 147322 | 185851
6 | 41:18.02 | 4:00.10 | 185852 | 203861
7 | 45:18.12 | 8:13.33 | 203862 | 240869


Range status and errors

Selected range

Filename C:\Program Files\Exact Audio Copy\Flac\Bach - Organ Chorale (Leipzig) [Vollenweider] - CD1.wav

Peak level 78.2 %
Extraction speed 5.1 X
Range quality 99.9 %
Test CRC 8FE45373
Copy CRC 8FE45373
Copy OK

No errors occurred


AccurateRip summary

Track 1 not present in database
Track 2 not present in database
Track 3 not present in database
Track 4 not present in database
Track 5 not present in database
Track 6 not present in database
Track 7 not present in database

None of the tracks are present in the AccurateRip database

End of status report

==== Log checksum CE876D357EA1A83D4FFC0F431A38255F1D3951F6D4FD8B5BDC6D15144246CBB2 ====

Exact Audio Copy V1.0 beta 3 from 29. August 2011

EAC extraction logfile from 20. January 2014, 23:15

Hans Vollenweider / Bach - Organ Chorale (Leipzig) - CD2

Used drive : ATAPI iHAS122 C Adapter: 0 ID: 1

Read mode : Secure
Utilize accurate stream : Yes
Defeat audio cache : Yes
Make use of C2 pointers : No

Read offset correction : 6
Overread into Lead-In and Lead-Out : No
Fill up missing offset samples with silence : Yes
Delete leading and trailing silent blocks : No
Null samples used in CRC calculations : Yes
Used interface : Installed external ASPI interface

Used output format : User Defined Encoder
Selected bitrate : 192 kBit/s
Quality : High
Add ID3 tag : No
Command line compressor : C:\Program Files\Exact Audio Copy\Flac\flac.exe
Additional command line options : -V -8 -T "Date=%year%" -T "Genre=%genre%" %source%


TOC of the extracted CD

Track | Start | Length | Start sector | End sector
––––––––––––––––––––––––––––-
1 | 0:00.33 | 4:57.55 | 33 | 22362
2 | 4:58.13 | 3:57.42 | 22363 | 40179
3 | 8:55.55 | 5:06.65 | 40180 | 63194
4 | 14:02.45 | 3:05.63 | 63195 | 77132
5 | 17:08.33 | 2:49.47 | 77133 | 89854
6 | 19:58.05 | 7:22.13 | 89855 | 123017
7 | 27:20.18 | 7:28.60 | 123018 | 156677
8 | 34:49.03 | 4:58.30 | 156678 | 179057
9 | 39:47.33 | 4:27.00 | 179058 | 199082
10 | 44:14.33 | 3:05.40 | 199083 | 212997
11 | 47:19.73 | 2:16.20 | 212998 | 223217
12 | 49:36.18 | 4:46.22 | 223218 | 244689


Range status and errors

Selected range

Filename C:\Program Files\Exact Audio Copy\Flac\Bach - Organ Chorale (Leipzig) [Vollenweider] - CD2.wav

Peak level 86.3 %
Extraction speed 8.0 X
Range quality 99.9 %
Test CRC 7A008C48
Copy CRC 7A008C48
Copy OK

No errors occurred


AccurateRip summary

Track 1 not present in database
Track 2 not present in database
Track 3 not present in database
Track 4 not present in database
Track 5 not present in database
Track 6 not present in database
Track 7 not present in database
Track 8 not present in database
Track 9 not present in database
Track 10 not present in database
Track 11 not present in database
Track 12 not present in database

None of the tracks are present in the AccurateRip database

End of status report

==== Log checksum 5BAEB929CD45DD599F114C797B9E82BB830FBB559B89906E22D1B0C8B3F29D0E ====