Subcategories

J.S.Bach - Cantatas, Vol. 9 - J.E.Gardiner

Posted By: pmarkov
J.S.Bach - Cantatas, Vol. 9 - J.E.Gardiner

J.S.Bach - Cantatas, Vol. 9 - J.E.Gardiner
2CD | APE+cue+log/MP3-320kbps+m3u + covers | 601.3/302.6Mb | 1:10:20+1:08:23 | SDG 2009

Contents:
J.S.Bach (1685-1750)

Cantatas BWV 148, 114, 47, 226, 96, 169, 116, 668
John Eliot Gardiner
For the Seventeenth Sunday after Trinity. Katharine Fuge, s. Frances
Bourne, Charles Humphries, Robin Tyson, a. Mark Padmore, t. Stephen
Loges, b. Allhelgonakyrkan, Lund.
Live recording from the Bach Cantata Pilgrimage
Thomaskirche, Leipzig, 22 Octeber 2000
CD1
01. BWV 148 - 1 Coro - Bringet dem Herrn Ehre Seines Namens [0:03:23.55]
02. BWV 148 - 2 Aria (Tenor) - Ich elle, die Lehren [0:04:57.67]
03. BWV 148 - 3 Recitativo (Alt) - So wie der Hirsch nach frischem Wasser schreit [0:01:21.16]
04. BWV 148 - 4 Aria (Alt) - Mund und Herze steht dir offen [0:04:45.35]
05. BWV 148 - 5 Recitativo (Tenor) - Bleib auch, mein Gott, in mir [0:00:53.56]
06. BWV 148 - 6 Choral - Auf meinen lieben Gott [0:00:55.38]
07. BWV 114 - 1 Coro (Choral) - Ach, lieben Christen, seid getrost [0:04:02.68]
08. BWV 114 - 2 Aria (tenor) - Wo wird in diesem Jammertale [0:10:03.66]
09. BWV 114 - 3 Recitativo (Bass) - O Sunder, trage mit Geduld [0:01:44.58]
10. BWV 114 - 4 Choral (Sopran) - Kein Frucht das Weisenkornlein bringt [0:01:44.08]
11. BWV 114 - 5 Aria (Alt) - Du machst, o Tod, mir nun nicht ferner bange [0:04:47.42]
12. BWV 114 - 6 Recitativo (Tenor) - Indes bedenke deine Seele [0:00:51.13]
13. BWV 114 - 7 Choral - Wir wachen oder schlafen ein [0:01:05.26]
14. BWV 47 - 1 Coro - Wer sich selbst erhohet, der soll erniedriget werden [0:05:21.67]
15. BWV 47 - 2 Aria (Sopran) - Wer ein wahrer Christ will heiBen [0:09:55.20]
16. BWV 47 - 3 Recitativo (Bass) - Der Mensch ist Kot, Stank, Asch und Erde [0:01:36.29]
17. BWV 47 - 4 Aria (Bass) - Jesu, beuge doch mein Herze [0:04:08.68]
18. BWV 47 - 5 Choral - Der zeitlichen ehrn will ich gern entbehrn [0:00:53.56]
19. BWV 226 - Der Geist hilft unser Schwachheit auf [0:07:46.66]
CD2
01. BWV 96 - Coro (Choral) - Herr Christ, der ein'ge Gottessohn [0:05:56.74]
02. BWV 96 - Recitativo (Alt) - O Wunderkraft der Liebe [0:01:27.08]
03. BWV 96 - Aria (Tenor) - Ach, ziehe die Seele mit Seilen der Liebe [0:07:29.65]
04. BWV 96 - Recitativo (Sopran) - Ach, fuhre mich, o Gott, zum rechten Wege [0:00:47.72]
05. BWV 96 - Aria (Bass) - Bald zur Rechten, bald zur Linken [0:02:45.37]
06. BWV 96 - Choral - Ertot und durch dein Gute [0:01:04.36]
07. BWV 169 - Sinfonia [0:07:32.36]
08. BWV 169 - Arioso e Recitativo (Alt) - Gott soll allein mein Herze haben [0:03:02.30]
09. BWV 169 - Aria (Alt) - gott soll allein mein Herze haben [0:05:46.52]
10. BWV 169 - Recitativo (Alt) - Was ist die Liebe Gottes? [0:01:04.45]
11. BWV 169 - Aria (Alt) - Stirb in mir [0:04:35.45]
12. BWV 169 - Recitativo (Alt) - Doch meint es auch dabei [0:00:35.04]
13. BWV 169 - Choral - Du suBe Liebe, schenk uns diene Gunst [0:01:09.10]
14. BWV 116 - Coro (Choral) - Du Friedefurst, Herr Jesu Christ [0:04:06.74]
15. BWV 116 - Aria (Alt) - Ach, unaussprechlich ist die Not [0:03:56.19]
16. BWV 116 - Recitativo (Tenor) - Gedenke doch [0:00:58.21]
17. BWV 116 - Aria Terzetto (Sopran, Tenor, Bass) - Ach, wir bekennen unsre Schuld [0:04:26.15]
18. BWV 116 - Recitativo (Alt) - Ach, lass uns durch die scharfen Ruten [0:01:07.19]
19. BWV 116 - Choral - Erleucht auch unser Sinn und Herz [0:01:00.66]
20. BWV 668 - Vor deinen Thron tret ich hiermit [0:09:29.27]

Exact Audio Copy V0.99 prebeta 5 from 4. May 2009

Archivo Log de extracciones desde 20. Diciembre 2009, 17:28

John Eliot Gardiner / Vol 9 BWV 148, 114, 47, 226, 96, 169, 116, 668

Usar unidad : MATSHITADVD-RAM UJ-842S Adapter: 2 ID: 1

Modo de Lectura : Seguro
Utilizar Corriente Exacta : Sн
Descartar Audio cachй : No
Utilizar los punteros C2 : No

Correcciуn de Desplazamiento de Lectura : 102
Sobreleer tanto en Lead-In como en Lead-Out : No
Rellenar las muestras faltantes con silencios : Sн
Eliminar silencios inicial y final : No
Se han usado muestras nulas en los cбlculos CRC : Sн
Interfaz usada : Interfaz propio de Win32 para Windowns NT y 2000

Formato de Salida utilizado : Compresor definido por el usuario
Bitrate seleccionado : 768 kBit/s
Calidad : Alta
Aсadir Etiqueta ID3 : No
Compresor de linea de comandos : C:\Archivos de programa\FLAC\flac.exe
Opciones adicionales en lнnea de comandos : -8 -V -T "artist=%a" -T "title=%t" -T "album=%g" -T "date=%y" -T "tracknumber=%n" -T "genre=%m" %s
Usar desplazamiento de compresiуn : 0


TOC del CD extraido

Pista | Inicio | Duraciуn | Sector inicial | Sector final
––––––––––––––––––––––––––––––-
1 | 0:00.00 | 3:23.55 | 0 | 15279
2 | 3:23.55 | 4:57.67 | 15280 | 37621
3 | 8:21.47 | 1:21.16 | 37622 | 43712
4 | 9:42.63 | 4:45.35 | 43713 | 65122
5 | 14:28.23 | 0:53.56 | 65123 | 69153
6 | 15:22.04 | 0:55.38 | 69154 | 73316
7 | 16:17.42 | 4:02.68 | 73317 | 91534
8 | 20:20.35 | 10:03.66 | 91535 | 136825
9 | 30:24.26 | 1:44.58 | 136826 | 144683
10 | 32:09.09 | 1:44.08 | 144684 | 152491
11 | 33:53.17 | 4:47.42 | 152492 | 174058
12 | 38:40.59 | 0:51.13 | 174059 | 177896
13 | 39:31.72 | 1:05.26 | 177897 | 182797
14 | 40:37.23 | 5:21.67 | 182798 | 206939
15 | 45:59.15 | 9:55.20 | 206940 | 251584
16 | 55:54.35 | 1:36.29 | 251585 | 258813
17 | 57:30.64 | 4:08.68 | 258814 | 277481
18 | 61:39.57 | 0:53.56 | 277482 | 281512
19 | 62:33.38 | 7:46.66 | 281513 | 316528


Gama de estados y errores

Seleccionar gama

Nombre de Archivo D:\ripeos\John Eliot Gardiner - Vol 9 BWV 148, 114, 47, 226, 96, 169, 116, 668.wav

Nivel Pico 100.0 %
Gama de Calidad 100.0 %
Copiar CRC BA2A7094
Copia OK

Sin Errores


Resumen AccurateRip

Pista 1 extraido de modo preciso (nivel de confianza 5) [9D3F7E73]
Pista 2 extraido de modo preciso (nivel de confianza 5) [65FFA07F]
Pista 3 extraido de modo preciso (nivel de confianza 5) [80FCEA6C]
Pista 4 extraido de modo preciso (nivel de confianza 5) [4C078BBD]
Pista 5 extraido de modo preciso (nivel de confianza 5) [77F25C7A]
Pista 6 extraido de modo preciso (nivel de confianza 5) [69B13C07]
Pista 7 extraido de modo preciso (nivel de confianza 5) [D995CDB5]
Pista 8 extraido de modo preciso (nivel de confianza 5) [68EE1FDB]
Pista 9 extraido de modo preciso (nivel de confianza 5) [B8EE92A1]
Pista 10 extraido de modo preciso (nivel de confianza 5) [50219F4E]
Pista 11 extraido de modo preciso (nivel de confianza 5) [84BCE98C]
Pista 12 extraido de modo preciso (nivel de confianza 5) [E4CC5EC3]
Pista 13 extraido de modo preciso (nivel de confianza 5) [D7B1A819]
Pista 14 extraido de modo preciso (nivel de confianza 5) [B5AAAA60]
Pista 15 extraido de modo preciso (nivel de confianza 5) [BD3BF2E5]
Pista 16 extraido de modo preciso (nivel de confianza 5) [F50D0951]
Pista 17 extraido de modo preciso (nivel de confianza 5) [BF662E76]
Pista 18 extraido de modo preciso (nivel de confianza 5) [F1B850EC]
Pista 19 extraido de modo preciso (nivel de confianza 4) [156E3D3B]

Todas las pistas extraidas de modo preciso

Final del Informe

Exact Audio Copy V0.99 prebeta 5 from 4. May 2009

Archivo Log de extracciones desde 20. Diciembre 2009, 18:19

Bach, J.S. - Gardiner / Bach Cantatas Vol. 9

Usar unidad : MATSHITADVD-RAM UJ-842S Adapter: 2 ID: 1

Modo de Lectura : Seguro
Utilizar Corriente Exacta : Sн
Descartar Audio cachй : No
Utilizar los punteros C2 : No

Correcciуn de Desplazamiento de Lectura : 102
Sobreleer tanto en Lead-In como en Lead-Out : No
Rellenar las muestras faltantes con silencios : Sн
Eliminar silencios inicial y final : No
Se han usado muestras nulas en los cбlculos CRC : Sн
Interfaz usada : Interfaz propio de Win32 para Windowns NT y 2000

Formato de Salida utilizado : Compresor definido por el usuario
Bitrate seleccionado : 768 kBit/s
Calidad : Alta
Aсadir Etiqueta ID3 : No
Compresor de linea de comandos : C:\Archivos de programa\FLAC\flac.exe
Opciones adicionales en lнnea de comandos : -8 -V -T "artist=%a" -T "title=%t" -T "album=%g" -T "date=%y" -T "tracknumber=%n" -T "genre=%m" %s
Usar desplazamiento de compresiуn : 0


TOC del CD extraido

Pista | Inicio | Duraciуn | Sector inicial | Sector final
––––––––––––––––––––––––––––––-
1 | 0:00.00 | 5:56.74 | 0 | 26773
2 | 5:56.74 | 1:27.08 | 26774 | 33306
3 | 7:24.07 | 7:29.65 | 33307 | 67046
4 | 14:53.72 | 0:47.72 | 67047 | 70643
5 | 15:41.69 | 2:45.37 | 70644 | 83055
6 | 18:27.31 | 1:04.36 | 83056 | 87891
7 | 19:31.67 | 7:32.36 | 87892 | 121827
8 | 27:04.28 | 3:02.30 | 121828 | 135507
9 | 30:06.58 | 5:46.52 | 135508 | 161509
10 | 35:53.35 | 1:04.45 | 161510 | 166354
11 | 36:58.05 | 4:35.45 | 166355 | 187024
12 | 41:33.50 | 0:35.04 | 187025 | 189653
13 | 42:08.54 | 1:09.10 | 189654 | 194838
14 | 43:17.64 | 4:06.74 | 194839 | 213362
15 | 47:24.63 | 3:56.19 | 213363 | 231081
16 | 51:21.07 | 0:58.21 | 231082 | 235452
17 | 52:19.28 | 4:26.15 | 235453 | 255417
18 | 56:45.43 | 1:07.19 | 255418 | 260461
19 | 57:52.62 | 1:00.66 | 260462 | 265027
20 | 58:53.53 | 9:29.27 | 265028 | 307729


Gama de estados y errores

Seleccionar gama

Nombre de Archivo D:\ripeos\Bach, J.S. - Gardiner - Bach Cantatas Vol. 9.wav

Nivel Pico 92.9 %
Gama de Calidad 99.9 %
Copiar CRC FF54ABA0
Copia OK

Sin Errores


Resumen AccurateRip

Pista 1 extraido de modo preciso (nivel de confianza 5) [71F12D8B]
Pista 2 extraido de modo preciso (nivel de confianza 5) [33EB3BF0]
Pista 3 extraido de modo preciso (nivel de confianza 5) [9B10645D]
Pista 4 extraido de modo preciso (nivel de confianza 5) [BD23D742]
Pista 5 extraido de modo preciso (nivel de confianza 5) [7D68DA0C]
Pista 6 extraido de modo preciso (nivel de confianza 5) [5C718442]
Pista 7 extraido de modo preciso (nivel de confianza 5) [F2A71BAC]
Pista 8 extraido de modo preciso (nivel de confianza 5) [42C9491A]
Pista 9 extraido de modo preciso (nivel de confianza 5) [705BF376]
Pista 10 extraido de modo preciso (nivel de confianza 5) [9FDC4E68]
Pista 11 extraido de modo preciso (nivel de confianza 5) [944AF632]
Pista 12 extraido de modo preciso (nivel de confianza 5) [E153396D]
Pista 13 extraido de modo preciso (nivel de confianza 5) [386C80ED]
Pista 14 extraido de modo preciso (nivel de confianza 5) [3DAAAF0A]
Pista 15 extraido de modo preciso (nivel de confianza 5) [F2080081]
Pista 16 extraido de modo preciso (nivel de confianza 5) [FC7EDB40]
Pista 17 extraido de modo preciso (nivel de confianza 4) [F1F66352]
Pista 18 extraido de modo preciso (nivel de confianza 5) [2EFF9D49]
Pista 19 extraido de modo preciso (nivel de confianza 5) [5E75CCAB]
Pista 20 extraido de modo preciso (nivel de confianza 6) [C67B5935]

Todas las pistas extraidas de modo preciso

Final del Informe

Download links list in the APE & MP3-320kbps formats:
http://rapidshare.com/files/325210539/Bach_Comp_Cant_Gardiner_Links.txt

no password