Subcategories

Johann Sebastian Bach - English Suites - Gustav Leonhardt (1973)

Posted By: generale79
Johann Sebastian Bach - English Suites  - Gustav Leonhardt (1973)

J. S. Bach - English Suites • Englische Suiten - Gustav Leonhardt [1973]
Baroque | EAC Rip | APE+CUE+LOG | HQ Scans | 2 CD | 932 MB | RS
Sony SB2K63949 | remastered in 1997

1st recording of English Suites BWV 806-811 by Gustav Leonhardt. Recorded at Doopsgezinde Kerk, Amsterdam, Holland in September 1973. With all repeats.
The recording is splendid, and it is well worth your listening time. Just listen to the sheer energy the great Leonhardt puts out with the 1st movement of the 3rd suite. That piece alone is worth the entire disc, but all works are worth while.
This is the cover of two cd of my rip. I have not been able to find the year of printing

Johann Sebastian Bach (1685-1750)

English Suites • Englische Suiten

CD1
01-06 Suite No.1 in A major, BWV 806
07-12 Suite No.2 in A minor, BWV 807
13-18 Suite No.3 in G minor, BWV 808
Total Playing Time: 68'08


CD1
01-06 Suite No.4 in F major, BWV 809
07-12 Suite No.5 in E minor, BWV 810
13-18 Suite No.6 in D minor, BWV 811
Total Playing Time: 76'02


Harpsichord after J. D. Dulcken, Antwerp 1745 by Martin Skowroneck, Bremen.
Recorded in Doopsgezinde Kerk, Amsterdam, September 1973


Gustav Leonhardt harpsichord

Exact Audio Copy V0.99 prebeta 5 from 4. May 2009

EAC extraction logfile from 5. July 2010, 19:17

Gustav Leonhardt / J. S. Bach - English Suites CD1

Used drive : HL-DT-STDVD-RAM GH22NP20 Adapter: 0 ID: 0

Read mode : Secure
Utilize accurate stream : Yes
Defeat audio cache : No
Make use of C2 pointers : No

Read offset correction : 102
Overread into Lead-In and Lead-Out : No
Fill up missing offset samples with silence : Yes
Delete leading and trailing silent blocks : No
Null samples used in CRC calculations : No
Used interface : Native Win32 interface for Win NT & 2000

Used output format : Internal WAV Routines
Sample format : 44.100 Hz; 16 Bit; Stereo


TOC of the extracted CD

Track | Start | Length | Start sector | End sector
––––––––––––––––––––––––––––-
1 | 0:00.00 | 2:09.30 | 0 | 9704
2 | 2:09.30 | 5:36.47 | 9705 | 34951
3 | 7:46.02 | 6:47.00 | 34952 | 65476
4 | 14:33.02 | 3:11.13 | 65477 | 79814
5 | 17:44.15 | 3:47.52 | 79815 | 96891
6 | 21:31.67 | 3:00.13 | 96892 | 110404
7 | 24:32.05 | 5:27.40 | 110405 | 134969
8 | 29:59.45 | 4:32.37 | 134970 | 155406
9 | 34:32.07 | 2:06.10 | 155407 | 164866
10 | 36:38.17 | 3:53.68 | 164867 | 182409
11 | 40:32.10 | 3:51.65 | 182410 | 199799
12 | 44:24.00 | 2:43.12 | 199800 | 212036
13 | 47:07.12 | 3:37.43 | 212037 | 228354
14 | 50:44.55 | 4:34.52 | 228355 | 248956
15 | 55:19.32 | 2:38.13 | 248957 | 260819
16 | 57:57.45 | 3:42.02 | 260820 | 277471
17 | 61:39.47 | 3:14.45 | 277472 | 292066
18 | 64:54.17 | 3:11.65 | 292067 | 306456


Range status and errors

Selected range

Filename K:\Gustav Leonhardt - J. S. Bach - English Suites CD1.wav

Peak level 76.7 %
Range quality 100.0 %
Test CRC 0363EF8A
Copy CRC 0363EF8A
Copy OK

No errors occurred


AccurateRip summary

Track 1 accurately ripped (confidence 5) [7B91350B]
Track 2 accurately ripped (confidence 5) [704EFBBA]
Track 3 accurately ripped (confidence 5) [DFBC0BE9]
Track 4 accurately ripped (confidence 5) [7CF66907]
Track 5 accurately ripped (confidence 5) [1D2F97AC]
Track 6 accurately ripped (confidence 5) [0CADE4E8]
Track 7 accurately ripped (confidence 5) [BDFC391E]
Track 8 accurately ripped (confidence 5) [21E9AF83]
Track 9 accurately ripped (confidence 5) [644265D1]
Track 10 accurately ripped (confidence 5) [8EB64A46]
Track 11 accurately ripped (confidence 5) [08074AB1]
Track 12 accurately ripped (confidence 5) [21FABE74]
Track 13 accurately ripped (confidence 5) [CFAA17B1]
Track 14 accurately ripped (confidence 5) [456A73ED]
Track 15 accurately ripped (confidence 5) [2D5008AC]
Track 16 accurately ripped (confidence 4) [A97ACA4D]
Track 17 accurately ripped (confidence 4) [34BA3001]
Track 18 accurately ripped (confidence 5) [B9384907]

All tracks accurately ripped

End of status report

Exact Audio Copy V0.99 prebeta 5 from 4. May 2009

EAC extraction logfile from 5. July 2010, 22:04

Gustav Leonhardt / J. S. Bach - English Suites CD2

Used drive : HL-DT-STDVD-RAM GH22NP20 Adapter: 0 ID: 0

Read mode : Secure
Utilize accurate stream : Yes
Defeat audio cache : No
Make use of C2 pointers : No

Read offset correction : 102
Overread into Lead-In and Lead-Out : No
Fill up missing offset samples with silence : Yes
Delete leading and trailing silent blocks : No
Null samples used in CRC calculations : No
Used interface : Native Win32 interface for Win NT & 2000

Used output format : Internal WAV Routines
Sample format : 44.100 Hz; 16 Bit; Stereo


TOC of the extracted CD

Track | Start | Length | Start sector | End sector
––––––––––––––––––––––––––––-
1 | 0:00.00 | 5:27.32 | 0 | 24556
2 | 5:27.32 | 4:22.68 | 24557 | 44274
3 | 9:50.25 | 1:59.15 | 44275 | 53214
4 | 11:49.40 | 3:27.05 | 53215 | 68744
5 | 15:16.45 | 3:52.47 | 68745 | 86191
6 | 19:09.17 | 3:45.40 | 86192 | 103106
7 | 22:54.57 | 5:56.25 | 103107 | 129831
8 | 28:51.07 | 5:07.08 | 129832 | 152864
9 | 33:58.15 | 2:51.15 | 152865 | 165704
10 | 36:49.30 | 4:00.10 | 165705 | 183714
11 | 40:49.40 | 3:14.67 | 183715 | 198331
12 | 44:04.32 | 3:23.45 | 198332 | 213601
13 | 47:28.02 | 8:35.50 | 213602 | 252276
14 | 56:03.52 | 5:08.33 | 252277 | 275409
15 | 61:12.10 | 2:40.65 | 275410 | 287474
16 | 63:53.00 | 3:59.25 | 287475 | 305424
17 | 67:52.25 | 4:01.05 | 305425 | 323504
18 | 71:53.30 | 4:07.10 | 323505 | 342039


Range status and errors

Selected range

Filename K:\Gustav Leonhardt - J. S. Bach - English Suites CD2.wav

Peak level 75.1 %
Range quality 100.0 %
Test CRC 90399FDA
Copy CRC 90399FDA
Copy OK

No errors occurred


AccurateRip summary

Track 1 accurately ripped (confidence 5) [749DF2BA]
Track 2 accurately ripped (confidence 5) [521BDE5E]
Track 3 accurately ripped (confidence 5) [552AA497]
Track 4 accurately ripped (confidence 5) [BDD4B2F4]
Track 5 accurately ripped (confidence 5) [EF82F5E1]
Track 6 accurately ripped (confidence 5) [E8426FA5]
Track 7 accurately ripped (confidence 5) [54EAFAA9]
Track 8 accurately ripped (confidence 5) [009392B7]
Track 9 accurately ripped (confidence 5) [649C7403]
Track 10 accurately ripped (confidence 5) [56025F13]
Track 11 accurately ripped (confidence 5) [5256F674]
Track 12 accurately ripped (confidence 5) [B905AFD4]
Track 13 accurately ripped (confidence 5) [BAE6D22A]
Track 14 accurately ripped (confidence 5) [5ABED936]
Track 15 accurately ripped (confidence 5) [290A9935]
Track 16 accurately ripped (confidence 4) [C423FDF1]
Track 17 accurately ripped (confidence 4) [B387F268]
Track 18 accurately ripped (confidence 3) [6EEDECD4]

All tracks accurately ripped

End of status report



Visit my blog of Baroque Music