Subcategories

Bach: Sonatas & Partitas Vol 2 - Isabelle Faust (2012)

Posted By: peotuvave
Bach: Sonatas & Partitas Vol 2 - Isabelle Faust (2012)

Bach: Sonatas & Partitas Vol 2 - Isabelle Faust (2012)
EAC Rip | Flac (Image + cue + log) | 1 CD | Full Scans | 321 MB
Genre: Classical | Label: Harmonia Mundi | Catalog Number: 902124

Isabelle Faust hit the Classical charts earlier this year with her mesmerising recording of Beethoven and Berg with Claudio Abbado. She followed up with some welcome live appearances here in the UK, which included the Brahms' concerto at the Barbican with frequent collaborators Jiri Belohlavek and the BBCSO.

Isabelle's recordings have won prizes since her harmonia mundi debut in 1997 which earned her a Gramophone Young Artist Award. In 2010 her Beethoven Violin Sonatas with Alexander Melnikov also won. The afore-mentioned Beethoven-Berg has been awarded Gramophone Recording of the Month, Daily Telegraph Classical CD of the Week, Times CD of the Week, Classic FM Disc of the Week, Sunday Times CD of the Week, BBC Music Magazine Recording of the Month and CD Review Disc of the Week.

Composer: Johann Sebastian Bach
Performer: Isabelle Faust

Reviews: In Fanfare 34:2, I urgently recommended the first volume of Isabelle Faust’s collection of Johann Sebastian Bach’s Solo Violin Sonatas and Partitas for the violinist’s “intellectual energy, for her tonal strength, and for the vibrant individuality of her playing… as one of the most personal and most inventive after [Nathan] Milstein’s.” The confidence and flexibility of her projection in the opening measures of the First Sonata, coupled with the same easy nobility of tone production that characterized the first volume (again on the 1704 Sleeping Beauty Stradivari), foreshadow a completion to the series, recorded in August and September of 2011, that’s in every way equal to its opening. Both complexity and variety mark her reading: She plays the fugue lightly and quickly, brings an airy grace to the Siciliana and a combination of virtuosity and effervescence to the gigue-like Presto—like Milstein’s various readings of this sonata, this one’s hardly academic, though it probes deeply, wearing its learning lightly—and elegantly.


Faust sharpens the dotted rhythms in the First Partita’s Allemande, creating excitement in the place of mere ritual acknowledgment of the movement’s piquant-looking rhythms. Her light and liquid grace in the Double provides a perfectly balanced foil. She accents the Corrente very strongly, yet again indulges rhythmic flexibility (enhanced by a cornucopia of articulations) that preserves the movement from any hint of the mechanical; and she pairs it with a performance of the Double that gives the impression, perhaps because of the giddy clarity of her détaché bowing, of being more rapid than almost anybody’s, except maybe Ruggiero Ricci’s (teachers often advise students that evenness at a slower tempo sounds quicker than a faster irregular speed). Her double-stops in the Sarabande sound resonant and sweetly in tune, and her gloss in the Double haunting and reflective. In the Tempo di Borea, she opens the shutters to a clean, bright light, with overall crisp articulation adding definition to her feathery bow stroke, and her playing of the Double extends this manner to the end of the work.


Even those who consider the Second Sonata the most abstract of the set should be convinced by the sense of almost ruminative, improvisatory freedom that Faust brings to its Grave. Her reading of the fugue at least seems to emphasize the subject’s compact geometry less than its linear flow, yet she provides plenty of punctuation, dividing the piece clearly into contrasting if complementary sections. She doesn’t linger over nuances in the Andante’s accompanied melody, but continually moves the melody and its musical argument forward. In the final Allegro, she adopts an approach heavier than she took in the first sonata’s Presto—perhaps in order to realize its almost concerto-like virtuosity and weight.


The engineers have captured Faust up close—close enough to pick up breathing, some of it, it seems, rather heavy, although not heavy enough to serve as a distraction in such a performance. For on the whole, Faust has encompassed in this set goals (whether she explicitly adopted them or not) that have eluded so many of her contemporaries: a thoughtful individuality that’s free from quirkiness and a style of bowing that suggests the period but still exhibits an almost seductive tonal sheen. Like Milstein, in either of his recordings, this is magisterial, authoritative—and urgently recommended.

Tracklisting:

1. Sonata for Violin solo no 2 in A minor, BWV 1003 by Johann Sebastian Bach
Performer: Isabelle Faust (Violin)
Period: Baroque
Written: 1720; Cöthen, Germany

2. Sonata for Violin solo no 1 in G minor, BWV 1001 by Johann Sebastian Bach
Performer: Isabelle Faust (Violin)
Period: Baroque
Written: 1720; Cöthen, Germany

3. Partita for Violin solo no 1 in B minor, BWV 1002 by Johann Sebastian Bach
Performer: Isabelle Faust (Violin)
Period: Baroque
Written: 1720; Cöthen, Germany

Exact Audio Copy V1.0 beta 3 from 29. August 2011

EAC extraction logfile from 4. November 2012, 19:25

Faust, Isabelle - violin Stradivarius / Bach - Sonatas & Partitas vol.2 BWV 1001-1003

Used drive : ATAPI iHAS122 Adapter: 0 ID: 0

Read mode : Secure
Utilize accurate stream : Yes
Defeat audio cache : Yes
Make use of C2 pointers : No

Read offset correction : 6
Overread into Lead-In and Lead-Out : No
Fill up missing offset samples with silence : Yes
Delete leading and trailing silent blocks : No
Null samples used in CRC calculations : Yes
Used interface : Native Win32 interface for Win NT & 2000

Used output format : User Defined Encoder
Selected bitrate : 1024 kBit/s
Quality : High
Add ID3 tag : No
Command line compressor : C:\Program Files\Exact Audio Copy\FLAC\FLAC.EXE
Additional command line options : -6 -V -T "ARTIST=%artist%" -T "TITLE=%title%" -T "ALBUM=%albumtitle%" -T "DATE=%year%" -T "TRACKNUMBER=%tracknr%" -T "GENRE=%genre%" -T "COMMENT=%comment%" -T "BAND=%albuminterpret%" -T "ALBUMARTIST=%albuminterpret%" -T "COMPOSER=%composer%" %haslyrics%–tag-from-file=LYRICS="%lyricsfile%"%haslyrics% -T "DISCNUMBER=%cdnumber%" -T "TOTALDISCS=%totalcds%" -T "TOTALTRACKS=%numtracks%" %hascover%–picture="%coverfile%"%hascover% %source% -o %dest%


TOC of the extracted CD

Track | Start | Length | Start sector | End sector
––––––––––––––––––––––––––––-
1 | 0:00.00 | 3:49.55 | 0 | 17229
2 | 3:49.55 | 4:32.52 | 17230 | 37681
3 | 8:22.32 | 2:30.73 | 37682 | 49004
4 | 10:53.30 | 3:11.29 | 49005 | 63358
5 | 14:04.59 | 4:51.39 | 63359 | 85222
6 | 18:56.23 | 2:19.31 | 85223 | 95678
7 | 21:15.54 | 2:57.43 | 95679 | 108996
8 | 24:13.22 | 3:10.48 | 108997 | 123294
9 | 27:23.70 | 2:59.51 | 123295 | 136770
10 | 30:23.46 | 2:09.41 | 136771 | 146486
11 | 32:33.12 | 2:55.24 | 146487 | 159635
12 | 35:28.36 | 3:10.23 | 159636 | 173908
13 | 38:38.59 | 4:10.21 | 173909 | 192679
14 | 42:49.05 | 7:54.54 | 192680 | 228283
15 | 50:43.59 | 4:07.20 | 228284 | 246828
16 | 54:51.04 | 5:29.04 | 246829 | 271507


Range status and errors

Selected range

Filename D:\Propriétaire\Documents\Musique Upload en cours\Faust, Isabelle - violin Stradivarius - Bach - Sonatas & Partitas vol.2 BWV 1001-1003.wav

Peak level 99.1 %
Extraction speed 8.7 X
Range quality 99.9 %
Copy CRC 2D960B99
Copy OK

No errors occurred


AccurateRip summary

Track 1 not present in database
Track 2 not present in database
Track 3 not present in database
Track 4 not present in database
Track 5 not present in database
Track 6 not present in database
Track 7 not present in database
Track 8 not present in database
Track 9 not present in database
Track 10 not present in database
Track 11 not present in database
Track 12 not present in database
Track 13 not present in database
Track 14 not present in database
Track 15 not present in database
Track 16 not present in database

None of the tracks are present in the AccurateRip database

End of status report


Thanks to the original releaser

Download:

Filepost

Part 1 | Part 2

Uploaded

Part 1 | Part 2