Subcategories

Bachman-Turner Overdrive - Live (2007)

Posted By: v3122
Bachman-Turner Overdrive - Live (2007)

Bachman-Turner Overdrive - Live (2007)
EAC | Flac(Image) + Cue + Log & MP3 CBR 320Kbps
Laser Light, 32920 | ~ 424 or 134 Mb | Scans Included
Hard Rock / Classic Rock

~ Recorded live in Chicago, March 8th, 1974 except track 7 recorded live on "Bob's Garage". ~

Bachman-Turner Overdrive - Live (2007)


Bachman-Turner Overdrive - Live (2007):

Bachman-Turner Overdrive - Live (2007)

Tracklist:

01. You Ain't Seen Nothing Yet 3:50
02. Let It Ride 3:47
03. Give It Time 5:22
04. Roll On Down The Highway 4:00
05. Welcome Home 6:33
06. Takin' Care Of Business 6:39
07. Slow Down Boogie 7:09
08. Hey You 3:49
09. Mississippi Queen 4:20
10 Sledgehammer 4:50

Exact Audio Copy V0.99 prebeta 4 from 23. January 2008

EAC extraction logfile from 2. August 2008, 2:33

Bachman-Turner Overdrive / Live

Used drive : TSSTcorpCD/DVDW SH-S182M Adapter: 4 ID: 0

Read mode : Secure
Utilize accurate stream : Yes
Defeat audio cache : Yes
Make use of C2 pointers : No

Read offset correction : 6
Overread into Lead-In and Lead-Out : No
Fill up missing offset samples with silence : Yes
Delete leading and trailing silent blocks : No
Null samples used in CRC calculations : Yes
Used interface : Installed external ASPI interface

Used output format : Internal WAV Routines
Sample format : 44.100 Hz; 16 Bit; Stereo


TOC of the extracted CD

Track | Start | Length | Start sector | End sector
––––––––––––––––––––––––––––-
1 | 0:00.00 | 3:49.68 | 0 | 17242
2 | 3:49.68 | 3:47.24 | 17243 | 34291
3 | 7:37.17 | 5:22.10 | 34292 | 58451
4 | 12:59.27 | 3:59.60 | 58452 | 76436
5 | 16:59.12 | 6:32.50 | 76437 | 105886
6 | 23:31.62 | 6:38.68 | 105887 | 135804
7 | 30:10.55 | 7:09.16 | 135805 | 167995
8 | 37:19.71 | 3:49.02 | 167996 | 185172
9 | 41:08.73 | 4:19.52 | 185173 | 204649
10 | 45:28.50 | 4:49.48 | 204650 | 226372


Range status and errors

Selected range

Filename F:\Release\Bachman-Turner Overdrive - Live\Bachman-Turner Overdrive - Live.wav

Peak level 98.8 %
Range quality 100.0 %
Test CRC 916EE671
Copy CRC 916EE671
Copy OK

No errors occurred


AccurateRip summary

Track 1 not present in database
Track 2 not present in database
Track 3 not present in database
Track 4 not present in database
Track 5 not present in database
Track 6 not present in database
Track 7 not present in database
Track 8 not present in database
Track 9 not present in database
Track 10 not present in database

None of the tracks are present in the AccurateRip database

End of status report

foobar2000 1.2.9 / Dynamic Range Meter 1.1.1
log date: 2016-09-03 12:03:54

––––––––––––––––––––––––––––––––––––––––
Analyzed: Bachman-Turner Overdrive / Live
––––––––––––––––––––––––––––––––––––––––

DR Peak RMS Duration Track
––––––––––––––––––––––––––––––––––––––––
DR7 -0.10 dB -7.90 dB 3:50 01-You Ain't Seen Nothing Yet
DR7 -0.10 dB -8.75 dB 3:47 02-Let It Ride
DR7 -0.11 dB -8.22 dB 5:22 03-Give It Time
DR8 -0.11 dB -8.55 dB 4:00 04-Roll On Down The Highway
DR7 -0.11 dB -9.40 dB 6:33 05-Welcome Home
DR8 -0.11 dB -9.69 dB 6:39 06-Takin' Care Of Business
DR8 -0.11 dB -9.46 dB 7:09 07-Slow Down Boogie
DR9 -0.11 dB -9.79 dB 3:49 08-Hey You
DR8 -0.11 dB -8.35 dB 4:20 09-Mississippi Queen
DR7 -0.11 dB -8.94 dB 4:50 10-Sledgehammer
––––––––––––––––––––––––––––––––––––––––

Number of tracks: 10
Official DR value: DR8

Samplerate: 44100 Hz
Channels: 2
Bits per sample: 16
Bitrate: 1080 kbps
Codec: FLAC

[CUETools log; Date: 03.09.2016 12:03:43; Version: 2.1.4]
[CTDB TOCID: jGwngaevROjVN4Sx1REhKY_OT5s-] found.
Track | CTDB Status
1 | (1/1) Accurately ripped
2 | (1/1) Accurately ripped
3 | (1/1) Accurately ripped
4 | (1/1) Accurately ripped
5 | (1/1) Accurately ripped
6 | (1/1) Accurately ripped
7 | (1/1) Accurately ripped
8 | (1/1) Accurately ripped
9 | (1/1) Accurately ripped
10 | (1/1) Accurately ripped
[AccurateRip ID: 00127f94-0096dae9-650bca0a] found.
Track [ CRC | V2 ] Status
01 [c44afee2|210145a3] (2+0/2) Accurately ripped
02 [2c35a627|af88cf50] (2+0/2) Accurately ripped
03 [d54bc704|d9450f7a] (2+0/2) Accurately ripped
04 [82e314c8|12151212] (2+0/2) Accurately ripped
05 [22456143|24ddfcd2] (2+0/2) Accurately ripped
06 [dce205bf|2bfc68c4] (2+0/2) Accurately ripped
07 [374221dc|012efb65] (2+0/2) Accurately ripped
08 [f3bd9348|4a12d8bf] (2+0/2) Accurately ripped
09 [b090a68a|7fa63698] (2+0/2) Accurately ripped
10 [de0f6516|69ebfeb3] (2+0/2) Accurately ripped

Track Peak [ CRC32 ] [W/O NULL] [ LOG ]
– 98,8 [916EE671] [F0B7BD99] CRC32
01 98,8 [FCF4724D] [FEFFE3C1]
02 98,8 [2064E220] [308FCF8D]
03 98,7 [A955953B] [42185216]
04 98,7 [7FB74846] [5CAB397A]
05 98,7 [8D1244FB] [6850BE0C]
06 98,7 [BCEA3145] [662680F3]
07 98,7 [AFFC1E1C] [09F4FAE5]
08 98,7 [40D5EEC2] [95D564E3]
09 98,7 [BB302199] [5C3563CA]
10 98,7 [979FBFE9] [F15A2AFD]

Bachman-Turner Overdrive - Live (2007)

All thanks go to Гордый

Bachman-Turner Overdrive in my Blog

Download Bachman-Turner Overdrive - Live (2007):