Subcategories

Backhouse, Vasari Singers - Gabriel Jackson: Requiem (2012)

Posted By: peotuvave
Backhouse, Vasari Singers - Gabriel Jackson: Requiem (2012)

Backhouse, Vasari Singers - Gabriel Jackson: Requiem (2012)
EAC Rip | Flac (Image + cue + log) | 294 MB | MP3 320Kbps CBR | 164 MB | 1 CD | Full Scans
Genre: Classical | Label: Naxos | Catalog Number: 8573049

While the unifying thread which links these works is that of loss, the underlying focus is an uplifting celebration of life and love. Gabriel Jackson’s Requiem combines traditional solemnity with poems which embrace wide-ranging spirituality, resulting in images of light and radiant optimism. Contrasting poignancy of expression is heard in personal tributes from John Tavener and Francis Pott, while Bob Chilcott uses Pachelbel’s famous Canon to set Oscar Wilde’s Requiescat. Vasari Singers’ Great British Anthems (8.572504) was described as ‘essential listening’ by Gramophone.

Composer: Gabriel Jackson, Johann Pachelbel, John Tavener, Francis Pott
Performer: Carl Herring
Conductor: Jeremy Backhouse
Orchestra/Ensemble: Vasari Singers

Tracklisting:

Requiem
1. Requiem aeternam I 00:06:47
2. Epitaph 00:04:27
3. Requiem aeternam II 00:03:26
4. Autumn Wind of Eve 00:03:05
5. Sanctus - Benedictus 00:07:06
6. Peace, My Heart 00:04:37
7. Lux aeterna 00:06:34
Jackson, Gabriel
Bible, lyricist(s)
In all his works
8. In all his works 00:04:48
Jackson, Gabriel
Atkinson, Geraldine, lyricist(s)
I am the voice of the wind
9. I am the voice of the wind 00:06:57
Pachelbel, Johann
Wilde, Oscar, lyricist(s)
Chilcott, Bob, arranger(s)
Canon and Gigue in D Major: Canon (arr. B. Chilcott for chorus and guitar as Canon, "Rosa Mystica")
10. Canon and Gigue in D Major: Canon (arr. B. Chilcott for chorus and guitar as Canon, "Rosa Mystica") 00:03:32
Tavener, John
Mother Thekla / Shakespeare, William, lyricist(s)
Song for Athene
11. Song for Athene 00:06:30
Pott, Francis
Bible - Old Testament, lyricist(s)
When David Heard that Absalom was Slain
12. When David Heard that Absalom was Slain 00:12:14

Exact Audio Copy V1.0 beta 3 from 29. August 2011

EAC extraction logfile from 22. March 2015, 19:43

Vasari Singers; Jeremy Backhouse / Gabriel Jackson - Requiem

Used drive : HL-DT-STDVDRAM GU70N Adapter: 0 ID: 0

Read mode : Secure
Utilize accurate stream : Yes
Defeat audio cache : Yes
Make use of C2 pointers : No

Read offset correction : 48
Overread into Lead-In and Lead-Out : No
Fill up missing offset samples with silence : Yes
Delete leading and trailing silent blocks : No
Null samples used in CRC calculations : Yes
Used interface : Native Win32 interface for Win NT & 2000

Used output format : User Defined Encoder
Selected bitrate : 128 kBit/s
Quality : High
Add ID3 tag : No
Command line compressor : C:\Program Files (x86)\Exact Audio Copy\Flac\flac.exe
Additional command line options : -V -8 -T "Date=%year%" -T "Genre=%genre%" %source%

TOC of the extracted CD

Track | Start | Length | Start sector | End sector
––––––––––––––––––––––––––––-
1 | 0:00.00 | 6:48.03 | 0 | 30602
2 | 6:48.03 | 4:28.23 | 30603 | 50725
3 | 11:16.26 | 3:24.18 | 50726 | 66043
4 | 14:40.44 | 3:04.53 | 66044 | 79896
5 | 17:45.22 | 7:06.11 | 79897 | 111857
6 | 24:51.33 | 4:39.33 | 111858 | 132815
7 | 29:30.66 | 6:36.14 | 132816 | 162529
8 | 36:07.05 | 4:46.48 | 162530 | 184027
9 | 40:53.53 | 6:58.47 | 184028 | 215424
10 | 47:52.25 | 3:29.71 | 215425 | 231170
11 | 51:22.21 | 6:32.04 | 231171 | 260574
12 | 57:54.25 | 12:09.50 | 260575 | 315299

Range status and errors

Selected range

Filename C:\temp\Naxos_8.573049 - Gabriel Jackson - Requiem\Gabriel Jackson - Requiem.wav

Peak level 99.8 %
Extraction speed 2.3 X
Range quality 100.0 %
Test CRC 63E9B6DF
Copy CRC 63E9B6DF
Copy OK

No errors occurred

AccurateRip summary

Track 1 accurately ripped (confidence 4) [33233991] (AR v2)
Track 2 accurately ripped (confidence 4) [224CAAEE] (AR v2)
Track 3 accurately ripped (confidence 4) [D71912BA] (AR v2)
Track 4 accurately ripped (confidence 4) [C8789A5F] (AR v2)
Track 5 accurately ripped (confidence 4) [0FA17BDA] (AR v2)
Track 6 accurately ripped (confidence 4) [5261444E] (AR v2)
Track 7 accurately ripped (confidence 4) [5DBD8B8B] (AR v2)
Track 8 accurately ripped (confidence 4) [2502E5D9] (AR v2)
Track 9 accurately ripped (confidence 4) [8AD64C0E] (AR v2)
Track 10 accurately ripped (confidence 4) [AE9F2160] (AR v2)
Track 11 accurately ripped (confidence 4) [EF529554] (AR v2)
Track 12 accurately ripped (confidence 4) [DD2AB094] (AR v2)

All tracks accurately ripped

End of status report

==== Log checksum 4A29A0F5F10F91FF58A71C526DDD5757527E8731A826376A17118E2F12A19518 ====



Thanks to the original releaser A-Z
Download:

Nitroflare: FLAC | MP3
Uploadable: FLAC | MP3