Backup Planet - Reactions (2017)

Posted By: Pisulik
Backup Planet - Reactions (2017)

Backup Planet - Reactions (2017)
EAC Rip | FLAC (Tracks) +cue, log, m3u - 301 MB | MP3 CBR 320 kbps - 101 MB | 00:43:32
Alternative Rock | Label: Independant

Following up their 2015 debut, Element, Nashville-based quartet Backup Planet experienced a tough year, working through a crash that destroyed their touring van and equipment, as well as the loss of a close friend and even a burglary. But the band used the trials to forge their sophomore album, Reactions, continuing their penchant for soaring, expansive music, blending rock, funk, jamtronica and more. On the album, Backup Planet voice some frustrations over the unpredictable nature of their chosen profession through songs like “Different Life,” imagining what a more stable calling might provide. These four musicians clearly love what they do, however, delivering euphoric tunes like the album’s title track, which rides a heavy and pulsing riff into a spacey and piercing guitar solo climax, and “Earth as a Dream,” which presents one of the band’s catchier choruses. “Destination Earth” blends a funk-fueled verse with an arena-rock refrain, exhibiting the band’s ability and willingness to blend genres even in the same song. While a few of the more pop-influenced moments on the record, such as the soft acoustic intro to “Looking Up,” can seem a bit out of place, it all comes as a result of Backup Planet’s exploratory spirit. This also fuels them when they are at their best, like on the bouncy, Chili Peppers-esque funk of “Sublimation,” boasting a peak that features some of the best guitar work and driving drums on the entire album.

TRACKLIST

01. Bad Man
02. Different Life
03. Reactions
04. Looking Up
05. Earth as a Dream
06. Little Mingo
07. Destination Earth
08. Waist High Jack
09. Sublimation
10. All In

Exact Audio Copy V1.3 from 2. September 2016

EAC extraction logfile from 23. June 2017, 11:21

Backup Planet / Reactions

Used drive : PLDS DVD-RW DS8A9SH Adapter: 1 ID: 0

Read mode : Secure
Utilize accurate stream : Yes
Defeat audio cache : Yes
Make use of C2 pointers : No

Read offset correction : 6
Overread into Lead-In and Lead-Out : No
Fill up missing offset samples with silence : Yes
Delete leading and trailing silent blocks : No
Null samples used in CRC calculations : Yes
Used interface : Native Win32 interface for Win NT & 2000
Gap handling : Appended to previous track

Used output format : User Defined Encoder
Selected bitrate : 128 kBit/s
Quality : High
Add ID3 tag : No
Command line compressor : C:\Program Files (x86)\Exact Audio Copy\Flac\flac.exe
Additional command line options : -8 -V -T "ARTIST=%artist%" -T "TITLE=%title%" -T "ALBUM=%albumtitle%" -T "DATE=%year%" -T "TRACKNUMBER=%tracknr%" -T "GENRE=%genre%" -T "PERFORMER=%albuminterpret%" -T "COMPOSER=%composer%" %haslyrics%–tag-from-file=LYRICS="%lyricsfile%"%haslyrics% -T "ALBUMARTIST=%albumartist%" -T "DISCNUMBER=%cdnumber%" -T "TOTALDISCS=%totalcds%" -T "TOTALTRACKS=%numtracks%" -T "COMMENT=%comment%" %source% -o %dest%


TOC of the extracted CD

Track | Start | Length | Start sector | End sector
––––––––––––––––––––––––––––-
1 | 0:00.00 | 5:06.42 | 0 | 22991
2 | 5:06.42 | 5:58.14 | 22992 | 49855
3 | 11:04.56 | 5:03.70 | 49856 | 72650
4 | 16:08.51 | 4:08.66 | 72651 | 91316
5 | 20:17.42 | 3:43.00 | 91317 | 108041
6 | 24:00.42 | 3:54.01 | 108042 | 125592
7 | 27:54.43 | 3:24.26 | 125593 | 140918
8 | 31:18.69 | 5:05.02 | 140919 | 163795
9 | 36:23.71 | 3:23.58 | 163796 | 179078
10 | 39:47.54 | 4:06.36 | 179079 | 197564


Track 1

Filename C:\#EAC Rips\01 Bad Man.wav

Pre-gap length 0:00:02.00

Peak level 99.9 %
Extraction speed 1.9 X
Track quality 100.0 %
Test CRC 8BD1A60D
Copy CRC 8BD1A60D
Track not present in AccurateRip database
Copy OK

Track 2

Filename C:\#EAC Rips\02 A Different Life.wav

Pre-gap length 0:00:02.00

Peak level 99.8 %
Extraction speed 1.8 X
Track quality 100.0 %
Test CRC 0FAF90CD
Copy CRC 0FAF90CD
Track not present in AccurateRip database
Copy OK

Track 3

Filename C:\#EAC Rips\03 Reactions.wav

Pre-gap length 0:00:02.00

Peak level 99.8 %
Extraction speed 2.4 X
Track quality 100.0 %
Test CRC 0E49A394
Copy CRC 0E49A394
Track not present in AccurateRip database
Copy OK

Track 4

Filename C:\#EAC Rips\04 Looking Up.wav

Pre-gap length 0:00:02.00

Peak level 94.9 %
Extraction speed 2.5 X
Track quality 100.0 %
Test CRC C12A1F67
Copy CRC C12A1F67
Track not present in AccurateRip database
Copy OK

Track 5

Filename C:\#EAC Rips\05 Earth As A Dream.wav

Pre-gap length 0:00:02.00

Peak level 99.9 %
Extraction speed 2.6 X
Track quality 100.0 %
Test CRC B8572345
Copy CRC B8572345
Track not present in AccurateRip database
Copy OK

Track 6

Filename C:\#EAC Rips\06 Little Mingo.wav

Pre-gap length 0:00:02.00

Peak level 99.8 %
Extraction speed 2.2 X
Track quality 99.9 %
Test CRC A718F53C
Copy CRC A718F53C
Track not present in AccurateRip database
Copy OK

Track 7

Filename C:\#EAC Rips\07 Destination Earth.wav

Pre-gap length 0:00:02.00

Peak level 99.9 %
Extraction speed 2.8 X
Track quality 100.0 %
Test CRC CF9CD5F8
Copy CRC CF9CD5F8
Track not present in AccurateRip database
Copy OK

Track 8

Filename C:\#EAC Rips\08 Waist High Jack.wav

Pre-gap length 0:00:02.00

Peak level 99.9 %
Extraction speed 3.1 X
Track quality 100.0 %
Test CRC 2F3729FD
Copy CRC 2F3729FD
Track not present in AccurateRip database
Copy OK

Track 9

Filename C:\#EAC Rips\09 Sublimation.wav

Pre-gap length 0:00:02.00

Peak level 99.9 %
Extraction speed 3.1 X
Track quality 100.0 %
Test CRC 70BF964F
Copy CRC 70BF964F
Track not present in AccurateRip database
Copy OK

Track 10

Filename C:\#EAC Rips\10 All In.wav

Pre-gap length 0:00:02.00

Peak level 100.0 %
Extraction speed 3.2 X
Track quality 100.0 %
Test CRC 9E639679
Copy CRC 9E639679
Track not present in AccurateRip database
Copy OK


None of the tracks are present in the AccurateRip database

No errors occurred

End of status report

–– CUETools DB Plugin V2.1.6

[CTDB TOCID: jYpX7rFw7mLNQzCr2Eca2HHvDaE-] found
Submit result: jYpX7rFw7mLNQzCr2Eca2HHvDaE- has been confirmed
Track | CTDB Status
1 | (2/2) Accurately ripped
2 | (2/2) Accurately ripped
3 | (2/2) Accurately ripped
4 | (2/2) Accurately ripped
5 | (2/2) Accurately ripped
6 | (2/2) Accurately ripped
7 | (2/2) Accurately ripped
8 | (2/2) Accurately ripped
9 | (2/2) Accurately ripped
10 | (2/2) Accurately ripped


==== Log checksum A607A8B8C74D2F3F8CF5D2CBA64FC3B1F8059586994960FD4B77BFA877CA9B56 ====


All thanks go to the original releaser