Subcategories

Bad Company - 10 From 6 (1985)

Posted By: popsakov
Bad Company - 10 From 6 (1985)

Bad Company - 10 From 6 (1985)
EAC Rip | FLAC (Img) + Cue + Log ~ 302 Mb | MP3 CBR320 ~ 117 Mb
Scans Included | RAR 5% Recovery
Hard Rock, Classic Rock | Atlantic Records #7567-81625-2

10 from 6 is a compilation album released by British supergroup Bad Company in December 1985 on Atlantic Records label. All the songs on the album were previously released on Swan Song Records, a record label begun by Led Zeppelin in 1974. 10 From 6 means ten songs from six albums – namely, Bad Company's first six records, all of which were big hits on album-oriented rock radio. This brief yet very effective collection gathers all of the group's best-known songs ("Can't Get Enough," "Feel Like Makin' Love," "Shooting Star," "Bad Company," "Rock 'n' Roll Fantasy," "Ready for Love") in one place. Although most album-oriented hard rock acts are better heard on the original albums, Bad Company's records tended to be more uneven than those of their peers, making 10 From 6 a valuable collection for the group's casual fans, who will want to bypass the cluttered studio albums and just get the cream of the crop.

***************

Bad Company - 10 From 6 (1985)

Bad Company - 10 From 6 (1985)

Track List:

01. Can't Get Enough [4:17]
02. Feel Like Makin'Love [5:15]
03. Run With The Pack [5:24]
04. Shooting Star [6:18]
05. Movin'On [3:23]
06. Bad Company [4:50]
07. Rock 'N' Roll Fantasy [3:20]
08. Electricland [5:30]
09. Ready For Love [5:02]
10. Live For The Music [3:59]

Exact Audio Copy V1.0 beta 3 from 29. August 2011

Отчёт EAC об извлечении, выполненном 25. июня 2018, 9:42

Bad Company / 10 From 6

Дисковод: ASUS DRW-20B1ST Adapter: 3 ID: 0

Режим чтения : Достоверность
Использование точного потока : Да
Отключение кэша аудио : Да
Использование указателей C2 : Нет

Коррекция смещения при чтении : 6
Способность читать области Lead-in и Lead-out : Нет
Заполнение пропущенных сэмплов тишиной : Да
Удаление блоков с тишиной в начале и конце : Нет
При вычислениях CRC использовались нулевые сэмплы : Да
Интерфейс : Встроенный Win32-интерфейс для Win NT/2000

Выходной формат : Пользовательский кодировщик
Выбранный битрейт : 1024 kBit/s
Качество : Высокий
Добавление ID3-тега : Нет
Утилита сжатия : C:\Program Files (x86)\Exact Audio Copy\FLAC\FLAC.EXE
Дополнительные параметры : -6 -V -T "ARTIST=%artist%" -T "TITLE=%title%" -T "ALBUM=%albumtitle%" -T "DATE=%year%" -T "TRACKNUMBER=%tracknr%" -T "GENRE=%genre%" -T "COMMENT=%comment%" -T "BAND=%albuminterpret%" -T "ALBUMARTIST=%albuminterpret%" -T "COMPOSER=%composer%" %haslyrics%–tag-from-file=LYRICS="%lyricsfile%"%haslyrics% -T "DISCNUMBER=%cdnumber%" -T "TOTALDISCS=%totalcds%" -T "TOTALTRACKS=%numtracks%" %hascover%–picture="%coverfile%"%hascover% %source% -o %dest%


TOC извлечённого CD

Трек | Старт | Длительность | Начальный сектор | Конечный сектор
––––––––––––––––––––––––––––––––––-
1 | 0:00.00 | 4:17.35 | 0 | 19309
2 | 4:17.35 | 5:14.60 | 19310 | 42919
3 | 9:32.20 | 5:24.28 | 42920 | 67247
4 | 14:56.48 | 6:18.35 | 67248 | 95632
5 | 21:15.08 | 3:23.30 | 95633 | 110887
6 | 24:38.38 | 4:50.17 | 110888 | 132654
7 | 29:28.55 | 3:19.48 | 132655 | 147627
8 | 32:48.28 | 5:29.72 | 147628 | 172374
9 | 38:18.25 | 5:02.28 | 172375 | 195052
10 | 43:20.53 | 3:59.17 | 195053 | 212994


Характеристики диапазона извлечения и сообщения об ошибках

Выбранный диапазон

Имя файла E:\Bad Company - 10 From 6.wav

Пиковый уровень 97.7 %
Скорость извлечения 7.8 X
Качество диапазона 99.9 %
CRC копии 0AF86709
Копирование… OK

Ошибок не произошло


AccurateRip: сводка

Трек 1 : извлечено точно (доверие 6) [65C50448] (AR v2)
Трек 2 : извлечено точно (доверие 7) [0A2C9189] (AR v2)
Трек 3 : извлечено точно (доверие 6) [D5ACCDA7] (AR v2)
Трек 4 : извлечено точно (доверие 6) [0FB61A6B] (AR v2)
Трек 5 : извлечено точно (доверие 6) [F29AAC8E] (AR v2)
Трек 6 : извлечено точно (доверие 6) [24B4C1E8] (AR v2)
Трек 7 : извлечено точно (доверие 6) [C9BE381F] (AR v2)
Трек 8 : извлечено точно (доверие 6) [79BEC5DB] (AR v2)
Трек 9 : извлечено точно (доверие 6) [F58436EC] (AR v2)
Трек 10 : извлечено точно (доверие 6) [C6BF86E6] (AR v2)

Все треки извлечены точно

Конец отчёта

==== Контрольная сумма отчёта 6107299165EBF8D4B3EBB969D43DAABD0CCD61595D833D74828A308AA2C15C8E ====

[CUETools log; Date: 07.12.2018 2:31:35; Version: 2.1.6]
[CTDB TOCID: RYZca_9ASIOz2r7dpG8Q0iscnE0-] found.
Track | CTDB Status
1 | (276/283) Accurately ripped
2 | (275/283) Accurately ripped
3 | (275/283) Accurately ripped
4 | (274/283) Accurately ripped
5 | (274/283) Accurately ripped
6 | (277/283) Accurately ripped
7 | (277/283) Accurately ripped
8 | (275/283) Accurately ripped
9 | (276/283) Accurately ripped
10 | (273/283) Accurately ripped
[AccurateRip ID: 001242a1-00917b75-880b170a] found.
Track [ CRC | V2 ] Status
01 [3740afb6|65c50448] (006+007/280) Accurately ripped
02 [db9e7554|0a2c9189] (006+008/276) Accurately ripped
03 [3ad7b154|d5accda7] (006+007/278) Accurately ripped
04 [ab43b9dc|0fb61a6b] (006+007/273) Accurately ripped
05 [ea92b078|f29aac8e] (006+007/277) Accurately ripped
06 [2d3dc1f7|24b4c1e8] (006+007/279) Accurately ripped
07 [b0f9d4c8|c9be381f] (006+007/278) Accurately ripped
08 [6e79856b|79bec5db] (006+007/280) Accurately ripped
09 [88be7b76|f58436ec] (006+007/274) Accurately ripped
10 [fdab3ffb|c6bf86e6] (006+007/275) Accurately ripped
Offsetted by -916:
01 [ab1cc19a] (053/280) Accurately ripped
02 [8f3bcdd8] (051/276) Accurately ripped
03 [eead9dc8] (053/278) Accurately ripped
04 [de1027d4] (049/273) Accurately ripped
05 [1704ccfc] (054/277) Accurately ripped
06 [e325d693] (056/279) Accurately ripped
07 [06c419ec] (052/278) Accurately ripped
08 [ea0b4733] (052/280) Accurately ripped
09 [d9d39482] (053/274) Accurately ripped
10 [6d197a2e] (051/275) Accurately ripped
Offsetted by 664:
01 [9bb8a2be] (059/280) Accurately ripped
02 [fca1c79c] (058/276) Accurately ripped
03 [cc9a867c] (059/278) Accurately ripped
04 [3dc7034c] (060/273) Accurately ripped
05 [4434cac0] (058/277) Accurately ripped
06 [180d23ef] (058/279) Accurately ripped
07 [42b7b250] (059/278) Accurately ripped
08 [c8e2077b] (061/280) Accurately ripped
09 [d778694e] (057/274) Accurately ripped
10 [a08f2cfc] (059/275) Accurately ripped

Track Peak [ CRC32 ] [W/O NULL] [ LOG ]
– 97,7 [0AF86709] [E29D1002] CRC32
01 97,0 [46212BDB] [51446C9D]
02 78,5 [89C97189] [04E62985]
03 78,7 [E995CA22] [F03C84AF]
04 82,5 [1CB02E68] [4EEDAB96]
05 79,9 [57CBE473] [99659286]
06 90,9 [CE7A0D81] [3B668AD1]
07 82,0 [099016A3] [EC0F0A70]
08 84,0 [4229DCEF] [FE663ABC]
09 97,7 [453A6274] [EB7293D1]
10 83,8 [ECA5D696] [9FEF4EC0]

Bad Company - 10 From 6 (1985)

All thanks go to the original ripper(s) …

>>> Bad Company in my Blog <<<

Download from icerbox.com: