Subcategories

Bad Company - Desolation Angels (1979) [24-bit Remastering 2010, Japan] Repost

Posted By: v3122
Bad Company - Desolation Angels (1979) [24-bit Remastering 2010, Japan] Repost

Anna Domino - Anna Domino (1986)
EAC | Flac(Image) + Cue + Log & MP3 CBR 320Kbps
2013 | Les Disques Du Crepuscule/Hayabusa Landings, HYSA-3037 | Japan | ~ 441 or 157 Mb | Artwork(png) -> 154 Mb
Electronic, Rock, Art Rock, Pop Rock, Synth-Pop

By the time Bad Company released Desolation Angels, it was evident that even Rodgers and Ralphs were getting tired of their '70s-styled, conveyor-belt brand of rock & roll, so they decided to add keyboards and some minor string work to the bulk of the tracks. Although this change of musical scenery was a slight breath of fresh air, it wasn't enough to give Desolation Angels the much added depth or distinction that was intended, and only the vocal passion of "Rock 'n' Roll Fantasy" really comes out on top, eventually becoming a gold single. The good news is that Desolation Angels is a noticeable improvement from 1977's Burnin' Sky, with Bad Company's sound taking on a smoother, more polished feel than its predecessor. "Gone, Gone, Gone," "Lonely for Your Love," and "She Brings Me Love" work best in Rodgers' favor, and fans did prove their loyalty, pushing the album to the number ten mark in the U.K. and to number three in the U.S. The campaign toward a new sound does cause a few of the cuts ("Crazy Circles," "Evil Wind") to appear a bit forced and overly glitzy (especially the use of electronic drums), and the album spawns a smattering of a few attractive moments rather than evolving as a complete, constructive listen. Things didn't get much better for Bad Company, and it was after the release of 1982's Rough Diamonds, a much weaker and unattached effort, that Rodgers decided to call it quits.

by Mike DeGagne, allmusic
Bad Company - Desolation Angels (1979):

Bad Company - Desolation Angels (1979) [24-bit Remastering 2010, Japan] Repost

Tracklist:

01. Rock 'N' Roll Fantasy
02. Crazy Circles
03. Gone, Gone, Gone
04. Evil Wind
05. Early In The Morning
06. Lonely For Your Love
07. Oh, Atlanta
08. Take The Time
09. Rhythm Machine
10. She Brings Me Love

Exact Audio Copy V1.0 beta 2 from 29. April 2011

EAC extraction logfile from 9. August 2011, 22:25

Bad Company / Desolation Angels

Used drive : HL-DT-STDVDRAM GSA-H60N Adapter: 2 ID: 0

Read mode : Secure
Utilize accurate stream : Yes
Defeat audio cache : Yes
Make use of C2 pointers : No

Read offset correction : 667
Overread into Lead-In and Lead-Out : No
Fill up missing offset samples with silence : Yes
Delete leading and trailing silent blocks : No
Null samples used in CRC calculations : Yes
Used interface : Native Win32 interface for Win NT & 2000

Used output format : Internal WAV Routines
Sample format : 44.100 Hz; 16 Bit; Stereo


TOC of the extracted CD

Track | Start | Length | Start sector | End sector
––––––––––––––––––––––––––––-
1 | 0:00.00 | 3:20.33 | 0 | 15032
2 | 3:20.33 | 3:33.30 | 15033 | 31037
3 | 6:53.63 | 3:49.59 | 31038 | 48271
4 | 10:43.47 | 4:22.22 | 48272 | 67943
5 | 15:05.69 | 5:48.59 | 67944 | 94102
6 | 20:54.53 | 3:29.38 | 94103 | 109815
7 | 24:24.16 | 4:09.43 | 109816 | 128533
8 | 28:33.59 | 4:14.35 | 128534 | 147618
9 | 32:48.19 | 3:46.40 | 147619 | 164608
10 | 36:34.59 | 4:43.08 | 164609 | 185841


Range status and errors

Selected range

Filename C:\Documents and Settings\Admin\Рабочий стол\Rip by ALLexxess\Bad Company\1979 Desolation Angels (Warner Music Japan Mini LP CD 2010)\Bad Company - Desolation Angels.wav

Peak level 100.0 %
Extraction speed 5.7 X
Range quality 100.0 %
Test CRC C4557E6B
Copy CRC C4557E6B
Copy OK

No errors occurred


AccurateRip summary

Track 1 accurately ripped (confidence 2) [4870D771] (AR v1)
Track 2 accurately ripped (confidence 2) [AB215ACA] (AR v1)
Track 3 accurately ripped (confidence 2) [F76331A4] (AR v1)
Track 4 accurately ripped (confidence 2) [7BC7E5A2] (AR v1)
Track 5 accurately ripped (confidence 2) [EF11BE2F] (AR v1)
Track 6 accurately ripped (confidence 2) [71705FB1] (AR v1)
Track 7 accurately ripped (confidence 2) [C0EA4C77] (AR v1)
Track 8 accurately ripped (confidence 2) [FF534D13] (AR v1)
Track 9 accurately ripped (confidence 2) [B8044DFD] (AR v1)
Track 10 accurately ripped (confidence 2) [F3ED8C0E] (AR v1)

All tracks accurately ripped

End of status report

==== Log checksum A2924F1291ED45A34E64907C2FE11CD77355D21E705056DBC709B36224B2233C ====


[CUETools log; Date: 17.11.2019 19:56:03; Version: 2.1.4]
[AccurateRip ID: 000f262a-007aa0a2-7f09ad0a] found.
Track [ CRC | V2 ] Status
01 [4870d771|8c4a489b] (02+11/13) Accurately ripped
02 [ab215aca|45af9ed9] (02+11/13) Accurately ripped
03 [f76331a4|314b9ec3] (02+11/13) Accurately ripped
04 [7bc7e5a2|40c6aeeb] (02+11/13) Accurately ripped
05 [ef11be2f|56d81d9b] (02+11/13) Accurately ripped
06 [71705fb1|31800679] (02+11/13) Accurately ripped
07 [c0ea4c77|aaa770e0] (02+11/13) Accurately ripped
08 [ff534d13|6731f439] (02+11/13) Accurately ripped
09 [b8044dfd|cd1e9397] (02+11/13) Accurately ripped
10 [f3ed8c0e|9dea243e] (02+11/13) Accurately ripped

Track Peak [ CRC32 ] [W/O NULL] [ LOG ]
– 100,0 [C4557E6B] [557A1296] CRC32
01 100,0 [877A4BE6] [659DFC57]
02 100,0 [4C159B6E] [C42A7797]
03 100,0 [6CF1EE12] [81B7E228]
04 100,0 [F25A037C] [5CDB4F39]
05 100,0 [E482F999] [8BADE4D8]
06 100,0 [B43D67F2] [18CC81CF]
07 100,0 [52E1436E] [E4E9B10A]
08 100,0 [87F69748] [62207A54]
09 100,0 [8A5F8E31] [97EB66A6]
10 100,0 [CD2B045A] [5F6F526A]


Bad Company - Desolation Angels (1979) [24-bit Remastering 2010, Japan] Repost

All thanks go to ALLexxess

Bad Company in my Blog

Download Bad Company - Desolation Angels (1979):