Subcategories

Bad Company - Extended Versions (2011)

Posted By: popsakov
Bad Company - Extended Versions (2011)

Bad Company - Extended Versions (2011)
EAC Rip | FLAC (Img) + Cue + Log ~ 398 Mb | MP3 CBR320 ~ 131 Mb
Scans (PNG, 400 dpi) ~ 79 Mb | RAR 5% Recovery
Blues Rock, Classic Rock | Sony Music #88697808532

Recorded live in 2010, Extended Versions features Paul Rodgers, Mick Ralphs, Simon Kirke, Lynn Sorensen, and Howard Leese performing some of the band’s biggest hits, including “Rock 'n' Roll Fantasy,” “Feel Like Makin' Love,” and “Shooting Star.”
~ All Music

***************

Bad Company - Extended Versions (2011)

Bad Company - Extended Versions (2011)

Track List:

01. Can't Get Enough [4:34]
02. Rock Steady [3:59]
03. Seagull [4:38]
04. Rock 'N' Roll Fantasy [4:39]
05. Electric Land [4:54]
06. Simple Man [5:17]
07. Feel Like Makin' Love [5:26]
08. Shooting Star [7:13]
09. Ready For Love [8:33]
10. Bad Company [5:29]

Exact Audio Copy V1.0 beta 3 from 29. August 2011

EAC extraction logfile from 17. April 2017, 17:17

Bad Company / Extended Versions

Used drive : PIONEER BD-RW BDR-TD03 Adapter: 0 ID: 1

Read mode : Secure
Utilize accurate stream : Yes
Defeat audio cache : Yes
Make use of C2 pointers : No

Read offset correction : 667
Overread into Lead-In and Lead-Out : No
Fill up missing offset samples with silence : Yes
Delete leading and trailing silent blocks : No
Null samples used in CRC calculations : Yes
Used interface : Native Win32 interface for Win NT & 2000

Used output format : User Defined Encoder
Selected bitrate : 768 kBit/s
Quality : High
Add ID3 tag : No
Command line compressor : C:\Program Files (x86)\Exact Audio Copy\FLAC\FLAC.EXE
Additional command line options : -6 -V -T "ARTIST=%artist%" -T "TITLE=%title%" -T "ALBUM=%albumtitle%" -T "DATE=%year%" -T "TRACKNUMBER=%tracknr%" -T "GENRE=%genre%" -T "COMMENT=%comment%" -T "BAND=%albuminterpret%" -T "ALBUMARTIST=%albuminterpret%" -T "COMPOSER=%composer%" %haslyrics%–tag-from-file=LYRICS="%lyricsfile%"%haslyrics% -T "DISCNUMBER=%cdnumber%" -T "TOTALDISCS=%totalcds%" -T "TOTALTRACKS=%numtracks%" %hascover%–picture="%coverfile%"%hascover% %source% -o %dest%


TOC of the extracted CD

Track | Start | Length | Start sector | End sector
––––––––––––––––––––––––––––-
1 | 0:00.00 | 4:33.57 | 0 | 20531
2 | 4:33.57 | 3:59.24 | 20532 | 38480
3 | 8:33.06 | 4:37.74 | 38481 | 59329
4 | 13:11.05 | 4:39.13 | 59330 | 80267
5 | 17:50.18 | 4:53.64 | 80268 | 102306
6 | 22:44.07 | 5:17.07 | 102307 | 126088
7 | 28:01.14 | 5:25.45 | 126089 | 150508
8 | 33:26.59 | 7:12.39 | 150509 | 182947
9 | 40:39.23 | 8:33.11 | 182948 | 221433
10 | 49:12.34 | 5:28.55 | 221434 | 246088


Range status and errors

Selected range

Filename C:\Users\Deris\Desktop\BadComExt\Bad Company - Extended Versions.wav

Peak level 100.0 %
Extraction speed 4.6 X
Range quality 99.9 %
Test CRC 3F303D63
Copy CRC 3F303D63
Copy OK

No errors occurred


AccurateRip summary

Track 1 accurately ripped (confidence 27) [19F7C27F] (AR v2)
Track 2 accurately ripped (confidence 27) [F02A640F] (AR v2)
Track 3 accurately ripped (confidence 27) [CD1A78E6] (AR v2)
Track 4 accurately ripped (confidence 27) [DD350547] (AR v2)
Track 5 accurately ripped (confidence 27) [DDB1F481] (AR v2)
Track 6 accurately ripped (confidence 28) [EB2AC710] (AR v2)
Track 7 accurately ripped (confidence 27) [38D549A1] (AR v2)
Track 8 accurately ripped (confidence 27) [0D98768D] (AR v2)
Track 9 accurately ripped (confidence 27) [41B2EFEF] (AR v2)
Track 10 accurately ripped (confidence 27) [9E554BD0] (AR v2)

All tracks accurately ripped

End of status report

–– CUETools DB Plugin V2.1.3

[CTDB TOCID: mHbXSUC_juljtBC2y.wOdfk5ZA4-] found, Submit result: mHbXSUC_juljtBC2y.wOdfk5ZA4- has been confirmed
[10431567] (57/60) Accurately ripped
[59771092] (01/60) No match
[e2871c56] (01/60) No match
[5b329076] (01/60) No match


==== Log checksum 3448EC026D8D5C0F62F8610033FBE545FD2F0B1E6A60CA7607C238DBFD83693D ====

foobar2000 1.2.6 / Dynamic Range Meter 1.1.1
log date: 2017-04-18 14:26:09

––––––––––––––––––––––––––––––––––––––––
Analyzed: Bad Company / Extended Versions
––––––––––––––––––––––––––––––––––––––––

DR Peak RMS Duration Track
––––––––––––––––––––––––––––––––––––––––
DR7 0.00 dB -9.57 dB 4:34 01-Can't Get Enough
DR9 0.00 dB -10.18 dB 3:59 02-Rock Steady
DR11 0.00 dB -15.52 dB 4:38 03-Seagull
DR7 0.00 dB -8.64 dB 4:39 04-Rock 'N' Roll Fantasy
DR8 -0.03 dB -9.42 dB 4:54 05-Electric Land
DR9 -0.17 dB -10.99 dB 5:17 06-Simple Man
DR8 0.00 dB -10.25 dB 5:26 07-Feel Like Makin' Love
DR8 0.00 dB -10.52 dB 7:13 08-Shooting Star
DR8 0.00 dB -10.88 dB 8:33 09-Ready For Love
DR8 0.00 dB -9.41 dB 5:29 10-Bad Company
––––––––––––––––––––––––––––––––––––––––

Number of tracks: 10
Official DR value: DR8

Samplerate: 44100 Hz
Channels: 2
Bits per sample: 16
Bitrate: 969 kbps
Codec: FLAC
================================================================================

[CUETools log; Date: 18.04.2017 14:26:14; Version: 2.1.5]
[CTDB TOCID: mHbXSUC_juljtBC2y.wOdfk5ZA4-] found.
Track | CTDB Status
1 | (58/61) Accurately ripped
2 | (61/61) Accurately ripped
3 | (61/61) Accurately ripped
4 | (61/61) Accurately ripped
5 | (61/61) Accurately ripped
6 | (61/61) Accurately ripped
7 | (61/61) Accurately ripped
8 | (61/61) Accurately ripped
9 | (61/61) Accurately ripped
10 | (61/61) Accurately ripped
[AccurateRip ID: 0012bcd3-00998ec4-830cd10a] found.
Track [ CRC | V2 ] Status
01 [c44c76d1|19f7c27f] (04+27/31) Accurately ripped
02 [02aa2e98|f02a640f] (04+27/31) Accurately ripped
03 [b8cf5d68|cd1a78e6] (04+27/31) Accurately ripped
04 [b10b60a5|dd350547] (04+27/31) Accurately ripped
05 [bb3a7e3f|ddb1f481] (04+27/31) Accurately ripped
06 [ee24ad93|eb2ac710] (04+28/32) Accurately ripped
07 [e108d74a|38d549a1] (04+27/31) Accurately ripped
08 [c0f9d269|0d98768d] (04+27/31) Accurately ripped
09 [40b5e25f|41b2efef] (04+27/31) Accurately ripped
10 [73e30493|9e554bd0] (04+27/31) Accurately ripped

Track Peak [ CRC32 ] [W/O NULL] [ LOG ]
– 100,0 [3F303D63] [60DC6C51] CRC32
01 100,0 [EF2B6DCB] [E4C7292B]
02 100,0 [32F50793] [0CC776BD]
03 100,0 [CBD2E6FB] [9BF51D01]
04 100,0 [99EAA18F] [428957B8]
05 99,6 [E988194E] [499785C4]
06 98,0 [9CDDBD6E] [4D8EF0B4]
07 100,0 [C2267371] [CB1357F0]
08 100,0 [DD85FAF0] [992AA36C]
09 100,0 [F2CC9C91] [C3963280]
10 100,0 [140872ED] [DBEAFC4A]

Bad Company - Extended Versions (2011)

All thanks go to Boris1

> Bad Company in my blog <