Subcategories

Bad Company - Straight Shooter (1975) [24-bit Remastering 2010, Japan] Repost

Posted By: v3122
Bad Company - Straight Shooter (1975) [24-bit Remastering 2010, Japan] Repost

Bad Company - Straight Shooter (1975)
EAC | Flac(Image) + Cue + Log & MP3 CBR 320Kbps
Warner Music Japan, WPCR-13903 | ~ 269 or 92 Mb | Artwork(png) -> 93 Mb
Rock / Hard Rock / Blues Rock | 24-bit Remastering 2010

Cut straight on the heels of Bad Company's 1974 debut – just a matter of three months later; not quite long enough to know how big a success the first LP would be – Straight Shooter is seemingly cut from the same cloth as its predecessor. It is, after all, a tight collection of eight strong, steady, heavy rockers that never, ever proceed in a hurry, but from the moment "Good Lovin' Gone Bad" kicks off the proceedings, it's clear that Bad Company have decided to expand their palette this second time around. Where Bad Company was stark, minimalist hard rock, Straight Shooter bears lots of different, vibrant colors: acoustic guitars are used for light and shade, guitars are channeled through chorus pedals, pianos and organs alternate with the occasional wash of strings, and the entire thing feels bigger and bolder than before. Sometimes, it is also better: the two big hits, "Feel Like Makin' Love" and "Shooting Star," became classic rock staples due to this expanded aural vocabulary, and even straight-ahead rockers like "Good Lovin' Gone Bad" and "Deal with the Preacher" benefit from this additional muscle, while they feel comfortable enough to settle into a soulful groove on "Anna" and "Call on Me." This dexterity compensates for the occasional stumble – aka, the hamfisted funk-rock of "Wild Fire Woman" – and shows that Bad Company can sound just as powerful and threatening when they're not concentrating on a heavy guitar crunch.

by Stephen Thomas Erlewine, allmusic
Bad Company - Straight Shooter (1975):

Bad Company - Straight Shooter (1975) [24-bit Remastering 2010, Japan] Repost

Tracklist:

01. Good Lovin' Gone Bad
02. Feel Like Makin' Love
03. Weep No More
04. Shooting Star
05. Deal With The Preacher
06. Wild Fire Woman
07. Anna
08. Call On Me

Exact Audio Copy V1.0 beta 2 from 29. April 2011

EAC extraction logfile from 10. August 2011, 19:44

Bad Company / Straight Shooter

Used drive : HL-DT-STDVDRAM GSA-H60N Adapter: 2 ID: 0

Read mode : Secure
Utilize accurate stream : Yes
Defeat audio cache : Yes
Make use of C2 pointers : No

Read offset correction : 667
Overread into Lead-In and Lead-Out : No
Fill up missing offset samples with silence : Yes
Delete leading and trailing silent blocks : No
Null samples used in CRC calculations : Yes
Used interface : Native Win32 interface for Win NT & 2000

Used output format : Internal WAV Routines
Sample format : 44.100 Hz; 16 Bit; Stereo


TOC of the extracted CD

Track | Start | Length | Start sector | End sector
––––––––––––––––––––––––––––-
1 | 0:00.00 | 3:37.62 | 0 | 16336
2 | 3:37.62 | 5:16.23 | 16337 | 40059
3 | 8:54.10 | 4:01.74 | 40060 | 58208
4 | 12:56.09 | 6:18.24 | 58209 | 86582
5 | 19:14.33 | 5:03.48 | 86583 | 109355
6 | 24:18.06 | 4:35.33 | 109356 | 130013
7 | 28:53.39 | 3:44.48 | 130014 | 146861
8 | 32:38.12 | 6:04.08 | 146862 | 174169


Range status and errors

Selected range

Filename C:\Documents and Settings\Admin\Рабочий стол\Rip by ALLexxess\Bad Company\1975 Straight Shooter (Warner Music Japan Mini LP CD 2010)\Bad Company - Straight Shooter.wav

Peak level 100.0 %
Extraction speed 5.7 X
Range quality 100.0 %
Test CRC AD1E2F6A
Copy CRC AD1E2F6A
Copy OK

No errors occurred


AccurateRip summary

Track 1 accurately ripped (confidence 2) [090C6483] (AR v2)
Track 2 accurately ripped (confidence 2) [BEC9B044] (AR v2)
Track 3 accurately ripped (confidence 2) [3A030D83] (AR v2)
Track 4 accurately ripped (confidence 2) [CE0BCD99] (AR v2)
Track 5 accurately ripped (confidence 2) [22FAE46C] (AR v2)
Track 6 accurately ripped (confidence 2) [ABD5D7E9] (AR v2)
Track 7 accurately ripped (confidence 2) [C1FC241D] (AR v2)
Track 8 accurately ripped (confidence 2) [9BBBF925] (AR v2)

All tracks accurately ripped

End of status report

==== Log checksum A034401D830DE6C30A0E340C0AAD43D580C801078D2470AF25770AE380A06F8E ====


[CUETools log; Date: 18.11.2019 13:12:37; Version: 2.1.4]
[AccurateRip ID: 000b9ef7-004e3c62-6a091208] found.
Track [ CRC | V2 ] Status
01 [20c5c403|090c6483] (00+09/09) Accurately ripped
02 [7bbe5855|bec9b044] (02+10/12) Accurately ripped
03 [785b60bd|3a030d83] (00+09/09) Accurately ripped
04 [32a7f01e|ce0bcd99] (00+09/09) Accurately ripped
05 [e8c351a7|22fae46c] (00+09/09) Accurately ripped
06 [7d574620|abd5d7e9] (00+09/09) Accurately ripped
07 [804c6b3e|c1fc241d] (00+09/09) Accurately ripped
08 [73a6b192|9bbbf925] (00+09/09) Accurately ripped

Track Peak [ CRC32 ] [W/O NULL] [ LOG ]
– 100,0 [AD1E2F6A] [2E609051] CRC32
01 100,0 [10558A02] [224E452E]
02 100,0 [5EEDDB6C] [336962A5]
03 100,0 [815410A1] [2CA6A6B3]
04 100,0 [D7B901C9] [918B0A34]
05 100,0 [5D7B5713] [AE304DE4]
06 100,0 [074FFD03] [9EFADB73]
07 100,0 [8CA1FEC5] [7E4FD082]
08 100,0 [6E41F556] [13A8A7CD]


Bad Company - Straight Shooter (1975) [24-bit Remastering 2010, Japan] Repost

All thanks go to ALLexxess

Bad Company in my Blog

Download Bad Company - Straight Shooter (1975):