Subcategories

Barbra Streisand - A Christmas Album (1967) (Repost)

Posted By: BlondStyle
Barbra Streisand - A Christmas Album (1967) (Repost)

Barbra Streisand - A Christmas Album (1967)
Pop | EAC Rip | APE + CUE + LOG + Covers | 34:16 Min | 184,60 Mb
MP3 | 320 Kbps | Covers | 75,08 Mb
Label: Columbia | Released: October 1967

A Christmas Album (1967) is the first Christmas album released by Barbra Streisand. The album is one of Streisand's best selling albums and is ranked as one of the best selling Christmas albums of all time. The album was the number 1 holiday album of the year and has been certified as 5x Platinum by the RIAA. The cover photograph was taken on 16 June 1967 during the rehearsal for her concert, A Happening in Central Park.

TrackList:

01. Jingle Bells? [1:58]
02. Have Yourself A Merry Little Christmas [3:14]
03. The Christmas Song (Chestnuts Roasting On An Open Fire) [4:00]
04. White Christmas [3:08]
05. My Favorite Things [3:09]
06. The Best Gift [3:11]
07. Sleep In Heavenly Peace (Silent Night) [3:07]
08. Gounod's Ave Maria [3:26]
09. O Little Town Of Bethlehem [2:58]
10. I Wonder As I Wander [3:18]
11. The Lord's Prayer [2:43]

Exact Audio Copy V0.99 prebeta 4 from 23. January 2008

Отчёт EAC об извлечении, выполненном 4. октября 2009, 15:33

Barbra Streisand / A Christmas Album

Дисковод: ATAPI DVD DW 8X16X8X16 Adapter: 0 ID: 2

Режим чтения : Достоверность
Использование точного потока : Да
Отключение кэша аудио : Да
Использование указателей C2 : Нет

Коррекция смещения при чтении : 618
Способность читать области Lead-in и Lead-out : Нет
Заполнение пропущенных сэмплов тишиной : Да
Удаление блоков с тишиной в начале и конце : Нет
При вычислениях CRC использовались нулевые сэмплы : Да
Интерфейс : Встроенный Win32-интерфейс для Win NT/2000

Выходной формат : Внутренние WAV-операции
Формат сэмплов : 44.100 Гц; 16 бит; стерео


TOC извлечённого CD

Трек | Старт | Длительность | Начальный сектор | Конечный сектор
––––––––––––––––––––––––––––––––––-
1 | 0:00.00 | 1:58.00 | 0 | 8849
2 | 1:58.00 | 3:13.48 | 8850 | 23372
3 | 5:11.48 | 4:00.35 | 23373 | 41407
4 | 9:12.08 | 3:08.35 | 41408 | 55542
5 | 12:20.43 | 3:08.72 | 55543 | 69714
6 | 15:29.40 | 3:14.03 | 69715 | 84267
7 | 18:43.43 | 3:07.32 | 84268 | 98324
8 | 21:51.00 | 3:26.28 | 98325 | 113802
9 | 25:17.28 | 2:58.25 | 113803 | 127177
10 | 28:15.53 | 3:18.27 | 127178 | 142054
11 | 31:34.05 | 2:46.38 | 142055 | 154542


Характеристики диапазона извлечения и сообщения об ошибках

Выбранный диапазон

Имя файла C:\Documents and Settings\OEM\Мои документы\Мои аудиозаписи\Barbra Streisand - A Christmas Album.wav

Пиковый уровень 88.9 %
Качество диапазона 100.0 %
CRC копии 5562DC1C
Копирование… OK

Ошибок не произошло


AccurateRip: сводка

Трек 1 точное извлечение (доверие 1) [9C69F8E0]
Трек 2 точное извлечение (доверие 1) [8A4C0C4B]
Трек 3 точное извлечение (доверие 1) [ACC3161C]
Трек 4 точное извлечение (доверие 1) [770B45B5]
Трек 5 точное извлечение (доверие 1) [9E04F88E]
Трек 6 точное извлечение (доверие 1) [FC93F9D3]
Трек 7 точное извлечение (доверие 1) [FD5E9ABA]
Трек 8 точное извлечение (доверие 1) [2F5CF0E5]
Трек 9 точное извлечение (доверие 1) [73725C4F]
Трек 10 точное извлечение (доверие 1) [CAA38747]
Трек 11 точное извлечение (доверие 1) [705B06A9]

Все треки извлечены точно

Конец отчёта


All Download Links
are Here


Password: www.AvaxHome.ru

P.S.
Sorry guys for this secrecy but such way will help to save the links from deleting
and it much more better than crappy and greedy so called "linkprotectors".

No Mirror Please