Subcategories

Barbra Streisand - Christmas Memories (2001)

Posted By: BlondStyle
Barbra Streisand - Christmas Memories (2001)

Barbra Streisand - Christmas Memories (2001)
Rock/Pop | EAC Rip | FLAC + CUE + LOG + Cover | 47:13 Min | 287,81 Mb
MP3 | 320 Kbps | Covers | 117,35 Mb
Label: Columbia | Date Released: October 30, 2001

Barbra Streisand's first new holiday album in 34 years makes for a special occasion amongst her legions of fans. CHRISTMAS MEMORIES, released within two months of the World Trade Center tragedy, is definitely a soothing, inspirational remedy for troubled times. "I'll be Home for Christmas" has been recorded hundreds of times, but in the context of American troops fighting abroad, the song becomes especially poignant. Barbra does a masterful take, with a polished, orchestral arrangement. Still glowing from saying "I Do" to actor James Brolin, Streisand shines on "A Christmas Love Song."

TrackList:

01. I'll Be Home For Christmas [4:12]
02. A Christmas Love Song [3:57]
03. What Are You Doing New Year's Eve? [3:54]
04. I Remember [4:57]
05. Snowbound [2:59]
06. It Must Have Been The Mistletoe [3:09]
07. Christmas Lullaby [3:30]
08. Christmas Mem'ries [4:45]
09. Grown-Up Christmas List [3:30]
10. Ave Maria [4:42]
11. Closer [3:58]
12. One God [3:39]

Exact Audio Copy V0.99 prebeta 4 from 23. January 2008

Отчёт EAC об извлечении, выполненном 24. декабря 2008, 8:20

Barbra Streisand / Christmas Memories

Дисковод: ATAPI DVD DW 8X16X8X16 Adapter: 0 ID: 2

Режим чтения : Достоверность
Использование точного потока : Да
Отключение кэша аудио : Да
Использование указателей C2 : Нет

Коррекция смещения при чтении : 618
Способность читать области Lead-in и Lead-out : Нет
Заполнение пропущенных сэмплов тишиной : Да
Удаление блоков с тишиной в начале и конце : Нет
При вычислениях CRC использовались нулевые сэмплы : Нет
Интерфейс : Установленный внешний ASPI-интерфейс

Выходной формат : Пользовательский кодировщик
Выбранный битрейт : 1024 kBit/s
Качество : Высокий
Добавление ID3-тэга : Нет
Утилита сжатия : C:\Program Files\Exact Audio Copy\Flac\flac.exe
Дополнительные параметры : -6 -V -T "ARTIST=%a" -T "TITLE=%t" -T "ALBUM=%g" -T "DATE=%y" -T "TRACKNUMBER=%n" -T "GENRE=%m" -T "COMMENT=%e" %s -o %d


TOC извлечённого CD

Трек | Старт | Длительность | Начальный сектор | Конечный сектор
––––––––––––––––––––––––––––––––––-
1 | 0:00.00 | 4:12.17 | 0 | 18916
2 | 4:12.17 | 3:56.60 | 18917 | 36676
3 | 8:09.02 | 3:53.55 | 36677 | 54206
4 | 12:02.57 | 4:57.35 | 54207 | 76516
5 | 17:00.17 | 2:59.08 | 76517 | 89949
6 | 19:59.25 | 3:09.70 | 89950 | 104194
7 | 23:09.20 | 3:29.70 | 104195 | 119939
8 | 26:39.15 | 4:45.20 | 119940 | 141334
9 | 31:24.35 | 3:29.35 | 141335 | 157044
10 | 34:53.70 | 4:42.12 | 157045 | 178206
11 | 39:36.07 | 3:58.33 | 178207 | 196089
12 | 43:34.40 | 3:39.22 | 196090 | 212536


Характеристики диапазона извлечения и сообщения об ошибках

Выбранный диапазон

Имя файла C:\Documents and Settings\OEM\Мои документы\Мои аудиозаписи\Barbra Streisand - Christmas Memories.wav

Пиковый уровень 96.5 %
Качество диапазона 99.9 %
CRC копии 7E3A7DE8
Копирование… OK

Ошибок не произошло

Конец отчёта


All Download Links
are Here


Password: www.AvaxHome.ru

P.S.
Sorry guys for this secrecy but such way will help to save the links from deleting
and it much more better than crappy and greedy so called "linkprotectors".

No Mirror Please