Barclay James Harvest - Caught In The Light (1993)

Posted By: v3122
Barclay James Harvest - Caught In The Light (1993)

Barclay James Harvest - Caught In The Light (1993)
EAC | Flac(Image) + Cue + Log & MP3 CBR 320Kbps
Polydor, 519 303-2 | ~ 453 or 167 Mb | Scans(png) -> 54 Mb
Progressive Rock

If you are a fan of Barclay James Harvest, or are an uninitiated soul looking for a good introduction to one of the worlds most underrated bands, then look no further than "Caught In the Light"! This is a brilliant album from start to finish, perhaps my favorite overall BJH album, and this is saying quite a lot as I really love their other albums too. Like The Moody Blues or Alan Parsons, BJH always give their listeners lots of musical diversity to sink their teeth into, and this album is certainly no different. A few standout songs include the lush, harmony-drenched environmentalist anthem "Who Do We Think We Are?". Bassist Les Holroyd's touching and delicate ballad "Copii Romania" (dedicated to the youngest victims of war). The melodic synth-driven rocker "A Matter of Time". The dramatic progressive rock piece "Cold War". And of course, guitarist John Lees' emotionally powerful "Once More", a "sequel" of sorts to the early-BJH classic "Mockingbird". The production and engineering work on this album is simply outstanding, with every instrument, vocal, and sound effect ringing-out loud and clear in the mix. The arrangements are heavy on rich vocal harmonies, strong melody lines, and lush keyboard timbres, and the songs are always well-constructed and memorable. Lees and Holroyd are both blessed with unique and instantly-recognizable lead voices, which is just one of the things that helps to give BJH that extra stamp of quality. This is a truly wonderful band who deserve far more attention than they will ever be given by the seemingly tone-deaf music media! But hey Amazon customers, the secret is now out of the bag!…Discover Barclay James Harvest for yourself!

ByJeffery K. Matheus, amazon
Barclay James Harvest - Caught In The Light (1993):

Barclay James Harvest - Caught In The Light (1993)

Tracklist:

01. Who Do We Think We Are? [06:00]
02. Knoydart [05:04]
03. Copii Romania [06:08]
04. Back To Earth [07:19]
05. Cold War [07:22]
06. Forever Yesterday [04:26]
07. The Great Unknown [04:41]
08. Spud-U-Like [04:17]
09. Silver Wings [03:52]
10. Once More [07:08]
11. A Matter Of Time [05:06]
12. Ballad Of Denshaw Mill [09:08]

Exact Audio Copy V0.99 prebeta 5 from 4. May 2009

EAC extraction logfile from 14. December 2012, 23:06

BARCLAY JAMES HARVEST / Caught In The Light

Used drive : ASUS DRW-24B3ST Adapter: 3 ID: 0

Read mode : Secure
Utilize accurate stream : Yes
Defeat audio cache : Yes
Make use of C2 pointers : No

Read offset correction : 6
Overread into Lead-In and Lead-Out : No
Fill up missing offset samples with silence : Yes
Delete leading and trailing silent blocks : No
Null samples used in CRC calculations : Yes
Used interface : Native Win32 interface for Win NT & 2000

Used output format : User Defined Encoder
Selected bitrate : 1024 kBit/s
Quality : High
Add ID3 tag : No
Command line compressor : C:\Program Files (x86)\EAC\WV\wavpack.exe
Additional command line options : -h -hh -m %s %d


TOC of the extracted CD

Track | Start | Length | Start sector | End sector
––––––––––––––––––––––––––––-
1 | 0:00.00 | 6:00.07 | 0 | 27006
2 | 6:00.07 | 5:04.48 | 27007 | 49854
3 | 11:04.55 | 6:08.67 | 49855 | 77521
4 | 17:13.47 | 7:19.13 | 77522 | 110459
5 | 24:32.60 | 7:22.42 | 110460 | 143651
6 | 31:55.27 | 4:26.48 | 143652 | 163649
7 | 36:22.00 | 4:41.55 | 163650 | 184779
8 | 41:03.55 | 4:17.20 | 184780 | 204074
9 | 45:21.00 | 3:52.07 | 204075 | 221481
10 | 49:13.07 | 7:08.33 | 221482 | 253614
11 | 56:21.40 | 5:06.42 | 253615 | 276606
12 | 61:28.07 | 9:08.05 | 276607 | 317711


Range status and errors

Selected range

Filename G:\BARCLAY JAMES HARVEST\18-1993- Caught In The Light (DE 1993 Polydor • 519 303-2)\B-J-H - Caught In The Light.wav

Peak level 100.0 %
Range quality 99.9 %
Test CRC C629DBCB
Copy CRC C629DBCB
Copy OK

No errors occurred


AccurateRip summary

Track 1 accurately ripped (confidence 27) [7B274F40]
Track 2 accurately ripped (confidence 27) [8456C08A]
Track 3 accurately ripped (confidence 27) [D46764AC]
Track 4 accurately ripped (confidence 27) [CCCD2CCA]
Track 5 accurately ripped (confidence 27) [492976A1]
Track 6 accurately ripped (confidence 27) [76EE952F]
Track 7 accurately ripped (confidence 27) [46E3C106]
Track 8 accurately ripped (confidence 26) [77C25F7E]
Track 9 accurately ripped (confidence 27) [3187BDC3]
Track 10 accurately ripped (confidence 26) [03114DCF]
Track 11 accurately ripped (confidence 26) [8D8DC981]
Track 12 accurately ripped (confidence 25) [04AEE7E7]

All tracks accurately ripped

End of status report

foobar2000 1.2.9 / Dynamic Range Meter 1.1.1
log date: 2017-05-06 13:08:46

––––––––––––––––––––––––––––––––––––––––
Analyzed: BARCLAY JAMES HARVEST / Caught In The Light
––––––––––––––––––––––––––––––––––––––––

DR Peak RMS Duration Track
––––––––––––––––––––––––––––––––––––––––
DR12 -0.06 dB -13.53 dB 6:00 01-Who Do We Think We Are?
DR11 -0.06 dB -13.50 dB 5:05 02-Knoydart
DR10 -1.98 dB -15.46 dB 6:09 03-Copii Romania
DR11 -0.75 dB -14.38 dB 7:19 04-Back To Earth
DR10 -0.07 dB -15.12 dB 7:23 05-Cold War
DR11 0.00 dB -14.63 dB 4:27 06-Forever Yesterday
DR11 -0.06 dB -14.88 dB 4:42 07-The Great Unknown
DR11 -0.06 dB -13.36 dB 4:17 08-Spud-U-Like
DR11 -0.90 dB -15.37 dB 3:52 09-Silver Wings
DR11 -0.06 dB -14.04 dB 7:08 10-Once More
DR11 -0.06 dB -13.04 dB 5:07 11-A Matter Of Time
DR12 -0.79 dB -16.07 dB 9:08 12-Ballad Of Denshaw Mill
––––––––––––––––––––––––––––––––––––––––

Number of tracks: 12
Official DR value: DR11

Samplerate: 44100 Hz
Channels: 2
Bits per sample: 16
Bitrate: 870 kbps
Codec: FLAC

[CUETools log; Date: 06.05.2017 13:08:33; Version: 2.1.4]
[CTDB TOCID: sv0e55O5tFeYkmZEIo6U2QRrxF0-] found.
Track | CTDB Status
1 | (66/66) Accurately ripped
2 | (66/66) Accurately ripped
3 | (66/66) Accurately ripped
4 | (66/66) Accurately ripped
5 | (66/66) Accurately ripped
6 | (66/66) Accurately ripped
7 | (66/66) Accurately ripped
8 | (66/66) Accurately ripped
9 | (66/66) Accurately ripped
10 | (65/66) Accurately ripped
11 | (65/66) Accurately ripped
12 | (66/66) Accurately ripped
[AccurateRip ID: 001efb51-011f8366-b0108c0c] found.
Track [ CRC | V2 ] Status
01 [7b274f40|45e686b4] (28+43/71) Accurately ripped
02 [8456c08a|9abc1940] (28+44/72) Accurately ripped
03 [d46764ac|8faaeb27] (28+45/73) Accurately ripped
04 [cccd2cca|9e4ddd48] (28+45/73) Accurately ripped
05 [492976a1|64ba4e48] (28+45/73) Accurately ripped
06 [76ee952f|c0393b81] (28+45/73) Accurately ripped
07 [46e3c106|7b6b6486] (28+45/73) Accurately ripped
08 [77c25f7e|edcae032] (27+43/70) Accurately ripped
09 [3187bdc3|9dffbaef] (28+45/73) Accurately ripped
10 [03114dcf|0690e7a3] (27+45/72) Accurately ripped
11 [8d8dc981|c6c75d40] (27+44/71) Accurately ripped
12 [04aee7e7|57320959] (26+43/69) Accurately ripped

Track Peak [ CRC32 ] [W/O NULL] [ LOG ]
– 100,0 [C629DBCB] [67CD259C] CRC32
01 99,2 [97ABF74B] [479CB3A2]
02 99,2 [9F8A21A9] [A2360646]
03 79,6 [A3AA09E9] [111115CA]
04 91,7 [6DEF602F] [4FDFBD88]
05 99,2 [8B3509EB] [74766CFD]
06 100,0 [6E912004] [CAC751C1]
07 99,2 [615803C5] [9ECA51D7]
08 99,2 [702C9D86] [BAA9BE6B]
09 90,1 [391D327E] [CA977521]
10 99,2 [0D628CA2] [DCEB15E1]
11 99,2 [9763EA51] [C6C4930B]
12 91,3 [6FF44D28] [30C525BD]

Barclay James Harvest - Caught In The Light (1993)

All thanks go to the original releaser

Barclay James Harvest in my Blog

Download Barclay James Harvest - Caught In The Light (1993):