Subcategories

Barclay James Harvest - Alone We Fly (1990)

Posted By: uff
Barclay James Harvest - Alone We Fly (1990)

Barclay James Harvest - Alone We Fly (1990)
rock | 1cd | Eac Rip | Flac + Cue + Log | covers
compilation | Connoisseur Collection VSOP CD 140 | rec: 1974-87 | 530mb

I came across this album whilst trying to catch up on BJH gaps in my collection. If I'd consulted Wikipedia first, I would have realised that this was a compilation, partly from earlier albums - and might not have bought it. However, I'm glad I did because, although there are duplicates, there are some rare singles and B sides included. It's all from the Polydor catalogue and makes for a very long disc at 79+ minutes. Good sound quality too. For the benefit of anyone considering it. ~Amazon

Tracks:
1 - Crazy City 4:54
2 - For No One 5:48
3 - Mockingbird 7:35
4 - Hymn 5:04
5 - Our Kid's Kid 3:52
6 - Berlin 4:50
7 - Loving Is Easy 3:41
8 - Love On The Line 6:30
9 - Rock 'N' Roll Lady 4:41
10 - Shades Of A Bill 4:09
11 - Fifties Child 4:18
12 - Waiting For The Right Time 3:27
13- -Blow Me Down 4:52
14 - Sideshow 4:55
15- -He Said Love 4:13
16- -Guitar Blues 5:18

Personnel:
- Les Holroyd / vocals, bass, guitars, keyboards
- John Lees / vocals, guitars
- Mel Pritchard / drums, percussion
- Woolly Wolstenholm / keyboards, Mellotron, vocals, guitars
- Bias Boshell / keyboards
- Kevin McAlea / keyboards

Exact Audio Copy V0.99 prebeta 3 from 28. July 2007

EAC extraction logfile from 12. January 2008, 10:43

Barclay James Harvest / Alone We Fly

Used drive : PLEXTOR DVDR PX-716A Adapter: 1 ID: 0

Read mode : Secure
Utilize accurate stream : Yes
Defeat audio cache : Yes
Make use of C2 pointers : No

Read offset correction : 30
Overread into Lead-In and Lead-Out : Yes
Fill up missing offset samples with silence : Yes
Delete leading and trailing silent blocks : No
Null samples used in CRC calculations : Yes
Used interface : Installed external ASPI interface

Used output format : Internal WAV Routines
Sample format : 44.100 Hz; 16 Bit; Stereo


TOC of the extracted CD

Track | Start | Length | Start sector | End sector
––––––––––––––––––––––––––––-
1 | 0:00.33 | 5:00.70 | 33 | 22602
2 | 5:01.28 | 5:52.72 | 22603 | 49074
3 | 10:54.25 | 7:45.65 | 49075 | 84014
4 | 18:40.15 | 5:08.35 | 84015 | 107149
5 | 23:48.50 | 3:58.23 | 107150 | 125022
6 | 27:46.73 | 4:39.25 | 125023 | 145972
7 | 32:26.23 | 4:01.50 | 145973 | 164097
8 | 36:27.73 | 6:38.55 | 164098 | 194002
9 | 43:06.53 | 4:45.47 | 194003 | 215424
10 | 47:52.25 | 4:12.33 | 215425 | 234357
11 | 52:04.58 | 4:20.62 | 234358 | 253919
12 | 56:25.45 | 3:29.38 | 253920 | 269632
13 | 59:55.08 | 4:54.55 | 269633 | 291737
14 | 64:49.63 | 4:55.72 | 291738 | 313934
15 | 69:45.60 | 4:13.15 | 313935 | 332924
16 | 73:59.00 | 5:16.35 | 332925 | 356659


Range status and errors

Selected range

Filename C:\DAE\Barclay James Harvest - Alone We Fly\Barclay James Harvest - Alone We Fly.wav

Peak level 100.0 %
Range quality 99.9 %
Test CRC 96FCCD4F
Copy CRC 96FCCD4F
Copy OK

No errors occurred

End of status report



[CUETools log; Date: 2013.02.19. 11:33:53; Version: 2.1.4]
Pregap length 00:00:33.
[CTDB TOCID: 3xWaEY.vAkw6G5I_CVflbERC2ig-] found.
Track | CTDB Status
1 | (1/1) Accurately ripped
2 | (1/1) Accurately ripped
3 | (1/1) Accurately ripped
4 | (1/1) Accurately ripped
5 | (1/1) Accurately ripped
6 | (1/1) Accurately ripped
7 | (1/1) Accurately ripped
8 | (1/1) Accurately ripped
9 | (1/1) Accurately ripped
10 | (1/1) Accurately ripped
11 | (1/1) Accurately ripped
12 | (1/1) Accurately ripped
13 | (1/1) Accurately ripped
14 | (1/1) Accurately ripped
15 | (1/1) Accurately ripped
16 | (1/1) Accurately ripped
[AccurateRip ID: 003039f7-023a1cb4-02129310] found.
Track [ CRC | V2 ] Status
01 [54a4480c|7ad17a0b] (07+00/41) Accurately ripped
02 [f7253c1d|ff043343] (08+00/42) Accurately ripped
03 [6f12b26f|a9aa22a2] (08+00/42) Accurately ripped
04 [4d03b10f|999e237b] (08+00/42) Accurately ripped
05 [4230cb13|7a0158d9] (08+00/41) Accurately ripped
06 [74fd54ae|b4e57472] (08+00/42) Accurately ripped
07 [a809269c|3e8f03db] (07+00/41) Accurately ripped
08 [c3dde9b1|0b0135bc] (07+00/41) Accurately ripped
09 [c3a7e7f5|3b099221] (08+00/41) Accurately ripped
10 [450539b2|c26038b8] (08+00/41) Accurately ripped
11 [c996a4c1|c317db54] (07+00/41) Accurately ripped
12 [e20bf1a0|c39ae638] (06+00/39) Accurately ripped
13 [6d8eb99a|73ae8df6] (07+00/41) Accurately ripped
14 [7bdd03ca|b335c448] (06+00/40) Accurately ripped
15 [f99b3b3f|069d66e3] (07+00/40) Accurately ripped
16 [1de902a1|9e073d4a] (06+00/37) Accurately ripped
Offsetted by -4:
01 [f745068d] (23/41) Accurately ripped
02 [1b8186d6] (23/42) Accurately ripped
03 [4e4b4423] (23/42) Accurately ripped
04 [e53a86ef] (23/42) Accurately ripped
05 [bd93f3c1] (22/41) Accurately ripped
06 [15ec25ec] (23/42) Accurately ripped
07 [c620a3ae] (23/41) Accurately ripped
08 [68530c7d] (23/41) Accurately ripped
09 [7d0d9ee4] (22/41) Accurately ripped
10 [7556553b] (22/41) Accurately ripped
11 [eb9b881a] (23/41) Accurately ripped
12 [7d73fe99] (23/39) Accurately ripped
13 [52a6a38e] (23/41) Accurately ripped
14 [1a296a0a] (23/40) Accurately ripped
15 [dcbfdee1] (22/40) Accurately ripped
16 [fc9a4535] (00/37) No match (V2 was not tested)
Offsetted by 82:
01 [d84be54c] (06/41) Accurately ripped
02 [d8b1e1a3] (06/42) Accurately ripped
03 [f8d306d0] (06/42) Accurately ripped
04 [38ca40c4] (06/42) Accurately ripped
05 [63387ea5] (06/41) Accurately ripped
06 [2ee06cb8] (06/42) Accurately ripped
07 [22563a03] (06/41) Accurately ripped
08 [11f59ca2] (06/41) Accurately ripped
09 [264a01ce] (06/41) Accurately ripped
10 [6a94fc51] (06/41) Accurately ripped
11 [de1cb4d5] (06/41) Accurately ripped
12 [5070ea9d] (05/39) Accurately ripped
13 [e97081f6] (06/41) Accurately ripped
14 [69d64404] (06/40) Accurately ripped
15 [52f5892b] (06/40) Accurately ripped
16 [3ee32b2e] (00/37) No match (V2 was not tested)

Track Peak [ CRC32 ] [W/O NULL] [ LOG ]
– 100,0 [96FCCD4F] [469F49EE] CRC32
01 100,0 [CB2C1980] [E9F179E4]
02 100,0 [B3C78246] [2773E75A]
03 99,9 [A653630B] [EAC9B370]
04 92,4 [28E1C42F] [29427EDD]
05 97,7 [99B72982] [3D9AE75A]
06 93,0 [71A87DA4] [6D619929]
07 97,7 [743F9AD5] [925369E4]
08 97,7 [EA6BE1B7] [510314F7]
09 87,9 [856D363A] [7834395F]
10 94,6 [452E58A9] [3C201603]
11 86,9 [77657C14] [03326F13]
12 100,0 [4BE8429E] [C416549B]
13 100,0 [B023029A] [EB0D1B2B]
14 96,7 [18141DF2] [43AF57B5]
15 99,9 [68F08E6B] [70866B0B]
16 82,1 [3A6B5FC2] [FD521D20]



Thx to the original uploader