Subcategories

Barclay James Harvest - Victims Of Circumstance (1984) REPOST

Posted By: uff
Barclay James Harvest - Victims Of Circumstance (1984) REPOST

Barclay James Harvest - Victims Of Circumstance (1984)
rock | 1cd | Eac Rip | Flac + Cue + Log | covers
Polydor 817 950-2 | 280mb

A competent collection of lightweight '80s rock. The simple arrangement of opening track "Sideshow" is helped by the use of guest backing vocalists, and the title track is one of BJH's better efforts from this period. The weakest link is in the keyboards, which unfortunately are also front and center in the recording. Bias Boshell creates some pleasant atmospherics, but Wolstenholme's shoes are just too big to fill. ~ allmusic

Tracks:
1. Sideshow (4:56)
2. Hold On (4:26)
3. Rebel Woman (4:23)
4. Say You'll Stay (3:55)
5. For Your Love (5:31)
6. Victims Of Circumstance (6:01)
7. Inside My Nightmare (4:32)
8. Watching You (4:36)
9. I've Got A Feeling (6:03)

Total Time: 44:23

Personnel:
- Les Holroyd / vocals, bass, keyboards
- John Lees / vocals, guitars
- Mel Pritchard / drums, percussion
Guest musicians:
- Bias Boshell / keyboards
- Frank Ricotti / percussion
- The David Kate Strings
- Pip Williams / orchestral arrangements

Exact Audio Copy V0.99 prebeta 3 from 28. July 2007

EAC extraction logfile from 1. November 2007, 17:24

Barclay James Harvest / Victims Of Circumstance

Used drive : PLEXTOR CD-R PX-W5224A Adapter: 1 ID: 1

Read mode : Secure
Utilize accurate stream : Yes
Defeat audio cache : Yes
Make use of C2 pointers : No

Read offset correction : 30
Overread into Lead-In and Lead-Out : Yes
Fill up missing offset samples with silence : Yes
Delete leading and trailing silent blocks : No
Null samples used in CRC calculations : Yes
Used interface : Installed external ASPI interface

Used output format : Internal WAV Routines
Sample format : 44.100 Hz; 16 Bit; Stereo


TOC of the extracted CD

Track | Start | Length | Start sector | End sector
––––––––––––––––––––––––––––-
1 | 0:00.32 | 4:56.05 | 32 | 22236
2 | 4:56.37 | 4:26.35 | 22237 | 42221
3 | 9:22.72 | 4:23.73 | 42222 | 62019
4 | 13:46.70 | 3:55.12 | 62020 | 79656
5 | 17:42.07 | 5:31.00 | 79657 | 104481
6 | 23:13.07 | 6:01.03 | 104482 | 131559
7 | 29:14.10 | 4:32.05 | 131560 | 151964
8 | 33:46.15 | 4:36.17 | 151965 | 172681
9 | 38:22.32 | 6:03.73 | 172682 | 199979


Range status and errors

Selected range

Filename C:\DAE\Barclay James Harvest - Victims Of Circumstance\Barclay James Harvest - Victims Of Circumstance.wav

Peak level 87.0 %
Range quality 100.0 %
Test CRC C3D1ADBE
Copy CRC C3D1ADBE
Copy OK

No errors occurred

End of status report


[CUETools log; Date: 2013.01.17. 8:12:23; Version: 2.1.4]
Pregap length 00:00:32.
[CTDB TOCID: 7JzgAuFXTM7dtJpwRRvjhXlX.pA-] found.
Track | CTDB Status
1 | (1/1) Accurately ripped
2 | (1/1) Accurately ripped
3 | (1/1) Accurately ripped
4 | (1/1) Accurately ripped
5 | (1/1) Accurately ripped
6 | (1/1) Accurately ripped
7 | (1/1) Accurately ripped
8 | (1/1) Accurately ripped
9 | (1/1) Accurately ripped
[AccurateRip ID: 000ec0b5-006cdf1f-7b0a6a09] found.
Track [ CRC | V2 ] Status
01 [3d10811d|91120f76] (16+04/43) Accurately ripped
02 [4b85ba8e|55fe8481] (16+04/43) Accurately ripped
03 [5edfe285|a1a72947] (16+04/43) Accurately ripped
04 [4c4806e9|8030b4f7] (15+04/42) Accurately ripped
05 [b09d6a03|00a8d5db] (16+04/43) Accurately ripped
06 [4e1bb51a|22f677b0] (16+04/44) Accurately ripped
07 [7a33886d|6f214d51] (16+04/43) Accurately ripped
08 [8b85934b|d16ecebd] (16+04/43) Accurately ripped
09 [cc4fc7c9|1eae49cb] (15+04/42) Accurately ripped
Offsetted by -543:
01 [694286b4] (02/43) Accurately ripped
02 [48690eb8] (02/43) Accurately ripped
03 [0d2b0088] (02/43) Accurately ripped
04 [8a56ec91] (02/42) Accurately ripped
05 [31392b6b] (02/43) Accurately ripped
06 [8929d463] (02/44) Accurately ripped
07 [cf151b68] (02/43) Accurately ripped
08 [af54ce25] (02/43) Accurately ripped
09 [5bce12e3] (02/42) Accurately ripped
Offsetted by 336:
01 [6e19fe25] (14/43) Accurately ripped
02 [191dd5ae] (14/43) Accurately ripped
03 [99eb6475] (14/43) Accurately ripped
04 [548bc291] (14/42) Accurately ripped
05 [6c595283] (14/43) Accurately ripped
06 [5af52796] (15/44) Accurately ripped
07 [d867cb01] (14/43) Accurately ripped
08 [563d1493] (14/43) Accurately ripped
09 [09739ec1] (14/42) Accurately ripped
Offsetted by -570:
01 [ce76a236] (05/43) Accurately ripped
02 [a59a8c8a] (05/43) Accurately ripped
03 [4cfea617] (05/43) Accurately ripped
04 [02d12eca] (05/42) Accurately ripped
05 [92233673] (05/43) Accurately ripped
06 [d2e004f8] (05/44) Accurately ripped
07 [86237806] (00/43) No match (V2 was not tested)
08 [b82ee758] (05/43) Accurately ripped
09 [12525974] (05/42) Accurately ripped

Track Peak [ CRC32 ] [W/O NULL] [ LOG ]
– 87,0 [C3D1ADBE] [551C9A93] CRC32
01 71,4 [4751CD2D] [256ADF82]
02 87,0 [D1ACCB0C] [9B1C2D56]
03 79,8 [60F74CF3] [9B3CDF7F]
04 87,0 [5A64F23D] [08BABD87]
05 87,0 [3949D2E3] [7538E309]
06 87,0 [A1D0DEC8] [5B5FB83C]
07 87,0 [21DC1B14] [1B403A14]
08 87,0 [1DC06C29] [F3C174AB]
09 56,0 [6D46F944] [64C6A36B]



Thx to the original uploader

More BJH on my blog