Subcategories
Tags
Language
Tags

Barry Gibb - Greenfields: The Gibb Brothers' Songbook, Vol. 1 (2021)

Posted By: popsakov
Barry Gibb - Greenfields: The Gibb Brothers' Songbook, Vol. 1 (2021)

Barry Gibb - Greenfields: The Gibb Brothers' Songbook, Vol. 1 (2021)
EAC Rip | FLAC (Img) + Cue + Log ~ 288 Mb | Full Scans ~ 331 Mb | 00:44:13 | RAR 5% Recovery
Pop Rock, Country Rock, Bluegrass | Capitol Records BOO3287802

A lifelong bluegrass and country music fan, legendary singer, songwriter and producer Barry Gibb has long dreamed of a project that would bring him together with some of the artists he admires the most. With the help of Grammy Award-winning producer Dave Cobb, that dream has become a reality with GREENFIELDS: The Gibb Brothers Songbook, Vol. 1-out January 8th via Capitol Records. The album includes new renditions of some of the Bee Gees' biggest hits, that Barry Gibb has re-recorded with several of the world's biggest country artists, including Dolly Parton, Keith Urban, Olivia Newton-John and Sheryl Crow.

Greenfields: The Gibb Brothers' Songbook, Vol. 1 may be a bit of a departure for Barry Gibb, who spent his career exploring the byways of pop music as a member of the Bee Gees, but it fits into a long line of albums where a pop star revisits his catalog through the prism of country music. Assisting Gibb in this journey is Dave Cobb, one of the premier producers in Nashville in the 2010s. Cobb's strength as a producer is helping an artist articulate their essence, a trick he pulls off again on Greenfields by keeping the focus directly on the song. Nothing here is too lavish, the star cameos can sometimes draw the focus away from Gibb himself – Dolly Parton dominates "Words," Jason Isbell grounds "Words of a Fool" – yet that only directs attention to how sturdy and enduring the songbook he crafted with his brothers is. While this also means Greenfields doesn't provide any surprises or revelations, the album's mellow vibe is engaging enough for that not to matter. This is a relaxed, generous affair, an album where the featured star and his guests defer not just to each other but to the songs they are singing.

~ Stephen Thomas Erlewine, All Music

***************

Track List:

01. I’ve Gotta Get a Message to You [3:15]
02. Words of a Fool [3:48]
03. Run to Me [3:23]
04. Too Much Heaven [3:40]
05. Lonely Days [3:44]
06. Words [3:12]
07. Jive Talkin’ [3:58]
08. How Deep Is Your Love [4:27]
09. How Can You Mend a Broken Heart [3:27]
10. To Love Somebody [3:36]
11. Rest Your Love on Me [4:03]
12. Butterfly [3:44]

Exact Audio Copy V1.1 from 23. June 2015

EAC extraction logfile from 12. January 2021, 11:12

Barry Gibb & Friends / Greenfields: The Gibb Brothers Songbook, Vol. 1

Used drive : MATSHITADVD+-RW SW830 Adapter: 1 ID: 0

Read mode : Secure
Utilize accurate stream : Yes
Defeat audio cache : Yes
Make use of C2 pointers : No

Read offset correction : 6
Overread into Lead-In and Lead-Out : No
Fill up missing offset samples with silence : Yes
Delete leading and trailing silent blocks : No
Null samples used in CRC calculations : Yes
Used interface : Native Win32 interface for Win NT & 2000

Used output format : User Defined Encoder
Selected bitrate : 768 kBit/s
Quality : High
Add ID3 tag : No
Command line compressor : C:\Program Files (x86)\Exact Audio Copy\FLAC\FLAC.EXE
Additional command line options : -6 -V -T "ARTIST=%artist%" -T "TITLE=%title%" -T "ALBUM=%albumtitle%" -T "DATE=%year%" -T "TRACKNUMBER=%tracknr%" -T "GENRE=%genre%" -T "COMMENT=%comment%" -T "BAND=%albuminterpret%" -T "ALBUMARTIST=%albuminterpret%" -T "COMPOSER=%composer%" %haslyrics%–tag-from-file=LYRICS="%lyricsfile%"%haslyrics% -T "DISCNUMBER=%cdnumber%" -T "TOTALDISCS=%totalcds%" -T "TOTALTRACKS=%numtracks%" %hascover%–picture="%coverfile%"%hascover% %source% -o %dest%


TOC of the extracted CD

Track | Start | Length | Start sector | End sector
––––––––––––––––––––––––––––-
1 | 0:00.00 | 3:14.67 | 0 | 14616
2 | 3:14.67 | 3:47.72 | 14617 | 31713
3 | 7:02.64 | 3:22.30 | 31714 | 46893
4 | 10:25.19 | 3:39.40 | 46894 | 63358
5 | 14:04.59 | 3:43.73 | 63359 | 80156
6 | 17:48.57 | 3:11.70 | 80157 | 94551
7 | 21:00.52 | 3:57.47 | 94552 | 112373
8 | 24:58.24 | 4:26.33 | 112374 | 132356
9 | 29:24.57 | 3:26.36 | 132357 | 147842
10 | 32:51.18 | 3:35.23 | 147843 | 163990
11 | 36:26.41 | 4:03.00 | 163991 | 182215
12 | 40:29.41 | 3:43.07 | 182216 | 198947


Range status and errors

Selected range

Filename C:\Users\Boris\Desktop\lossless\GibSngBk\Barry Gibb & Friends - Greenfields- The Gibb Brothers Songbook, Vol. 1.wav

Peak level 100.0 %
Extraction speed 3.0 X
Range quality 100.0 %
Test CRC A2E6E4A0
Copy CRC A2E6E4A0
Copy OK

No errors occurred


AccurateRip summary

Track 1 not present in database
Track 2 not present in database
Track 3 not present in database
Track 4 not present in database
Track 5 not present in database
Track 6 not present in database
Track 7 not present in database
Track 8 not present in database
Track 9 not present in database
Track 10 not present in database
Track 11 not present in database
Track 12 not present in database

None of the tracks are present in the AccurateRip database

End of status report

–– CUETools DB Plugin V2.1.6

[CTDB TOCID: k7seYu.DrK2G3d85JtSa33vlIEs-] found
Submit result: k7seYu.DrK2G3d85JtSa33vlIEs- has been confirmed
Track | CTDB Status
1 | (6/6) Accurately ripped
2 | (6/6) Accurately ripped
3 | (6/6) Accurately ripped
4 | (6/6) Accurately ripped
5 | (6/6) Accurately ripped
6 | (6/6) Accurately ripped
7 | (6/6) Accurately ripped
8 | (6/6) Accurately ripped
9 | (6/6) Accurately ripped
10 | (6/6) Accurately ripped
11 | (6/6) Accurately ripped
12 | (6/6) Accurately ripped


==== Log checksum C4A7F8DAEF6EEE69CFE8BC1C6E6999B22C24B04DCF8F511115A03C0170118A14 ====

All thanks go to Boris1

>>> Barry Gibb in my Blog <<<

DOWNLOAD: