Subcategories

Barry Manilow - Here At The Mayflower (2001)

Posted By: BlondStyle
Barry Manilow - Here At The Mayflower (2001)

Barry Manilow - Here At The Mayflower (2001)
Pop/Easy listening | EAC Rip | Multi FLAC + CUE + LOG + Covers | 62:44 Min | 442,52 Mb
MP3 | 320 Kbps | Covers | 158,75 Mb
Label: Concord Records | Released: November 13, 2001

Here at the Mayflower is an album released by Barry Manilow in 2001. The album is a concept album based on an apartment complex. The album marked the first album to include all original material since 2:00 AM Paradise Cafe in 1984.

TrackList:

01. Elevator Operator: Do You Know Who's Livin' Next Door?
02. Apartments 3B and 5N: Come Monday
03. Apartment 3E: Border Train
04. Apartment 2H: Turn the Radio Up
05. Apartment 2G: I Hear Her Playing Music
06. Apartment 4J: Talk to Me
07. Apartment 6C: Not What You See
08. Elevator Operator: Freddie Said
09. Apartment 1A: Some Bar by the Harbor
10. Apartment 2H: Say Goodbye
11. Elevator Operator: She Should'a Been Mine
12. Apartment 4G: That Night That Tito Played
13. Apartment 5F: I'm Comin' Back
14. Apartment 6C: I Miss You
15. Elevator Operator: They Dance!
16. Apartment 3E: Welcome Home

Exact Audio Copy V0.99 prebeta 4 from 23. January 2008

EAC extraction logfile from 13. May 2008, 18:14

Barry Manilow / Here at the Mayflower

Used drive : PLEXTOR DVDR PX-716A Adapter: 0 ID: 0

Read mode : Secure
Utilize accurate stream : Yes
Defeat audio cache : Yes
Make use of C2 pointers : No

Read offset correction : 30
Overread into Lead-In and Lead-Out : Yes
Fill up missing offset samples with silence : Yes
Delete leading and trailing silent blocks : No
Null samples used in CRC calculations : Yes
Used interface : Native Win32 interface for Win NT & 2000
Gap handling : Appended to previous track

Used output format : Internal WAV Routines
Sample format : 44.100 Hz; 16 Bit; Stereo


TOC of the extracted CD

Track | Start | Length | Start sector | End sector
––––––––––––––––––––––––––––-
1 | 0:00.00 | 3:51.40 | 0 | 17364
2 | 3:51.40 | 3:56.00 | 17365 | 35064
3 | 7:47.40 | 4:45.02 | 35065 | 56441
4 | 12:32.42 | 3:11.38 | 56442 | 70804
5 | 15:44.05 | 4:08.25 | 70805 | 89429
6 | 19:52.30 | 5:17.70 | 89430 | 113274
7 | 25:10.25 | 4:53.02 | 113275 | 135251
8 | 30:03.27 | 2:05.13 | 135252 | 144639
9 | 32:08.40 | 4:59.70 | 144640 | 167134
10 | 37:08.35 | 4:07.20 | 167135 | 185679
11 | 41:15.55 | 3:33.37 | 185680 | 201691
12 | 44:49.17 | 3:17.65 | 201692 | 216531
13 | 48:07.07 | 3:31.03 | 216532 | 232359
14 | 51:38.10 | 3:19.02 | 232360 | 247286
15 | 54:57.12 | 3:00.15 | 247287 | 260801
16 | 57:57.27 | 4:52.40 | 260802 | 282741


Track 1

Filename G:\EAC\Barry Manilow - Here at the Mayflower (2001) [FLAC]\01 - Elevator Operator - Do You Know Who's Livin' Next Door.wav

Pre-gap length 0:00:02.00

Peak level 98.8 %
Track quality 100.0 %
Test CRC 35C2B762
Copy CRC 35C2B762
Accurately ripped (confidence 8) [BBC783C4]
Copy OK

Track 2

Filename G:\EAC\Barry Manilow - Here at the Mayflower (2001) [FLAC]\02 - Apartments 3B & 5N - Come Monday.wav

Peak level 98.8 %
Track quality 100.0 %
Test CRC 5B4CA608
Copy CRC 5B4CA608
Accurately ripped (confidence 8) [A36F0230]
Copy OK

Track 3

Filename G:\EAC\Barry Manilow - Here at the Mayflower (2001) [FLAC]\03 - Apartment 3E - Border Train.wav

Peak level 98.8 %
Track quality 100.0 %
Test CRC AAE877C2
Copy CRC AAE877C2
Accurately ripped (confidence 8) [F4387870]
Copy OK

Track 4

Filename G:\EAC\Barry Manilow - Here at the Mayflower (2001) [FLAC]\04 - Apartment 2H - Turn the Radio Up.wav

Peak level 98.8 %
Track quality 100.0 %
Test CRC D7E43EF3
Copy CRC D7E43EF3
Accurately ripped (confidence 8) [721D1A00]
Copy OK

Track 5

Filename G:\EAC\Barry Manilow - Here at the Mayflower (2001) [FLAC]\05 - Apartment 2G - I Hear Her Playing Music.wav

Peak level 98.8 %
Track quality 100.0 %
Test CRC 1C73A044
Copy CRC 1C73A044
Accurately ripped (confidence 8) [F7131989]
Copy OK

Track 6

Filename G:\EAC\Barry Manilow - Here at the Mayflower (2001) [FLAC]\06 - Apartment 4J - Talk to Me.wav

Peak level 98.8 %
Track quality 100.0 %
Test CRC 57A8D022
Copy CRC 57A8D022
Accurately ripped (confidence 8) [D1703FEB]
Copy OK

Track 7

Filename G:\EAC\Barry Manilow - Here at the Mayflower (2001) [FLAC]\07 - Apartment 6C - Not What You See.wav

Pre-gap length 0:00:01.15

Peak level 100.0 %
Track quality 100.0 %
Test CRC 62685556
Copy CRC 62685556
Accurately ripped (confidence 8) [57CA4E14]
Copy OK

Track 8

Filename G:\EAC\Barry Manilow - Here at the Mayflower (2001) [FLAC]\08 - Elevator Operator - Freddie Said.wav

Pre-gap length 0:00:00.70

Peak level 98.8 %
Track quality 99.9 %
Test CRC E26F73C8
Copy CRC E26F73C8
Accurately ripped (confidence 8) [E414B8BE]
Copy OK

Track 9

Filename G:\EAC\Barry Manilow - Here at the Mayflower (2001) [FLAC]\09 - Apartment 1A - Some Bar by the Harbor.wav

Pre-gap length 0:00:00.30

Peak level 98.8 %
Track quality 100.0 %
Test CRC 6ADBC0C9
Copy CRC 6ADBC0C9
Accurately ripped (confidence 8) [43C5E780]
Copy OK

Track 10

Filename G:\EAC\Barry Manilow - Here at the Mayflower (2001) [FLAC]\10 - Apartment 2H - Say Goodbye.wav

Pre-gap length 0:00:00.68

Peak level 98.8 %
Track quality 100.0 %
Test CRC D4D6A156
Copy CRC D4D6A156
Accurately ripped (confidence 7) [884DA27C]
Copy OK

Track 11

Filename G:\EAC\Barry Manilow - Here at the Mayflower (2001) [FLAC]\11 - Elevator Operator - She Should'a Been Mine.wav

Peak level 98.8 %
Track quality 99.9 %
Test CRC DF180AF0
Copy CRC DF180AF0
Accurately ripped (confidence 8) [0A0AC1A4]
Copy OK

Track 12

Filename G:\EAC\Barry Manilow - Here at the Mayflower (2001) [FLAC]\12 - Apartment 4G - The Night That Tito Played.wav

Peak level 98.8 %
Track quality 100.0 %
Test CRC 458D33D7
Copy CRC 458D33D7
Accurately ripped (confidence 8) [70D08592]
Copy OK

Track 13

Filename G:\EAC\Barry Manilow - Here at the Mayflower (2001) [FLAC]\13 - Apartment 5F - I'm Comin' Back.wav

Pre-gap length 0:00:00.27

Peak level 98.8 %
Track quality 100.0 %
Test CRC 0CB02195
Copy CRC 0CB02195
Accurately ripped (confidence 8) [DE518BF8]
Copy OK

Track 14

Filename G:\EAC\Barry Manilow - Here at the Mayflower (2001) [FLAC]\14 - Apartment 6C - I Miss You.wav

Pre-gap length 0:00:01.33

Peak level 98.4 %
Track quality 100.0 %
Test CRC CF17130A
Copy CRC CF17130A
Accurately ripped (confidence 8) [5C03CE5F]
Copy OK

Track 15

Filename G:\EAC\Barry Manilow - Here at the Mayflower (2001) [FLAC]\15 - Elevator Operator - They Dance!.wav

Pre-gap length 0:00:00.45

Peak level 98.8 %
Track quality 100.0 %
Test CRC EA181FAF
Copy CRC EA181FAF
Accurately ripped (confidence 8) [B6CF43B3]
Copy OK

Track 16

Filename G:\EAC\Barry Manilow - Here at the Mayflower (2001) [FLAC]\16 - Apartment 3E - Welcome Home.wav

Pre-gap length 0:00:01.22

Peak level 98.8 %
Track quality 99.9 %
Test CRC 28B5DAB6
Copy CRC 28B5DAB6
Accurately ripped (confidence 8) [23EC5067]
Copy OK


All tracks accurately ripped

No errors occurred

End of status report


All Download Links
are Here


Password: www.AvaxHome.ru

P.S.
Sorry guys for this secrecy but such way will help to save the links from deleting
and it much more better than crappy and greedy so called "linkprotectors".

No Mirror Please