Subcategories

Barry Manilow - This One's For You (1976) [2002, Remastered Reissue]

Posted By: BlondStyle
Barry Manilow - This One's For You (1976) [2002, Remastered Reissue]

Barry Manilow - This One's For You (1976) [2002, Remastered Reissue]
Pop/Rock, Pop, Soft Rock | EAC Rip | FLAC, Img+CUE + LOG + Full Scans-300dpi (JPEG) | 38:46 Min | 252,90 Mb
Label: Arista Records, Inc. / BMG (EU) | Released: 2002, April, 27

This One's For You is the fourth studio album by singer-songwriter Barry Manilow released in 1976. The album went 3x platinum, and yielded the hits "This One's for You", "Weekend in New England" and the #1 "Looks Like We Made It". Review by Joe Viglione: This One's for You -- the fourth album from Barry Manilow -- contained four Top 30 hits including Randy Edelman's stunningly significant "Weekend in New England" (Top Ten towards the end of 1976), and another Number One -- "Looks Like We Made It" cowritten by "Mandy" cowriter Richard Kerr and "Somewhere in the Night" cowriter Will Jennings -- a fact that begs the question -- why didn't Barry Manilow cowrite with the bevy of major songwriters who penned his major hit recordings? The most consistent of his albums up to this point in time -- a big improvement over his Tryin' to Get the Feeling LP -- there are still lyrics that initiate "the cringe factor," words so uncool they no doubt participated in keeping Barry Manilow from enjoying the chic appreciation Middle of the Road predecessors Ferrante & Teicher and their contemporaries were blessed with years after heavy chart activity. A song with science fiction overtones like "Riders to the Stars" comes off as tacky, Adrienne Anderson and Manilow dripping with excess, though they find redemption in penning the singer's ninth hit, "Daybreak," a strong and bouncy number in the "It's a Miracle" category, but even better. And the team that brought you "It's a Miracle," lyricist Marty Panzer and showman Manilow create the title track, "This One's for You," the song with the weakest showing of Barry's first 16 Top 30 hits. With great orchestration from Gerald Alters, Charles Calello, Dick Berkhe, and Van McCoy, a touch of class permeates the Manilow/Ron Dante production. The first five songs flow better than the second half, but three of the four hits are very, very special -- further cementing this artist as a major force -- those hits keeping him on the charts from October of 1976 to October of 1977 -- as a huge radio presence keeping the audience primed for the next studio disc and its four more hits.
Barry Manilow - This One's For You (1976) [2002, Remastered Reissue]

Barry Manilow - This One's For You (1976) [2002, Remastered Reissue]


Release of the album: 1976, August [LP Arista, Cat.# AL 4090, USA]
Release of this CD: 2002, April, 27 [CD Arista Records, Inc. / BMG (EU), Cat.# 07822 18331 2 / EAN: 078221833127]
℗ & © 1976 Arista Records Inc.
Distributed By the local BMG Company. A unit of BMG Entertainment.
Made in the EU

Arranged By – Barry Manilow
Backing Vocals – Barry Manilow, Debra Byrd, Lady Flash, Monica Burruss, Ron Dante, The Lady In The Middle With The Very Strange Name
Design, Photography By – Lee Gurst
Engineer [Recording] – Michael Delugg
Producer – Barry Manilow, Ron Dante
Remastered By [Digital Remastering] – Bill Inglot, Ken Perry


Tracklist:

01. "This One's for You" (03:31)
(Adrienne Anderson / Barry Manilow)
02. "Daybreak" (03:10)
(Adrienne Anderson / Barry Manilow)
03. "You Oughta Be Home With Me" (03:14)
(Adrienne Anderson / Barry Manilow)
04. "Jump Shout Boogie" (03:07)
(Barry Manilow / Bruce Sussman)
05. "Weekend in New England" (03:47)
(Randy Edelman)
06. "Riders to the Stars" (03:37)
(Adrienne Anderson / Barry Manilow)
07. "Let Me Go" (04:01)
(Barry Manilow / Marty Panzer)
08. "Looks Like We Made It" (03:36)
(Will Jennings / Richard Kerr)
09. "Say the Words" (02:54)
(Barry Manilow)
10. "All the Time" (03:20)
(Barry Manilow / Marty Panzer)
11. "See the Show Again" (04:28)
(Adrienne Anderson / Barry Manilow)

Exact Audio Copy V1.0 beta 3 from 29. August 2011

Отчёт EAC об извлечении, выполненном 3. февраля 2012, 19:56

Barry Manilow / This One's For You

Дисковод: TSSTcorpCDDVDW TS-L633J Adapter: 0 ID: 1

Режим чтения : Достоверность
Использование точного потока : Да
Отключение кэша аудио : Да
Использование указателей C2 : Нет

Коррекция смещения при чтении : 6
Способность читать области Lead-in и Lead-out : Нет
Заполнение пропущенных сэмплов тишиной : Да
Удаление блоков с тишиной в начале и конце : Нет
При вычислениях CRC использовались нулевые сэмплы : Да
Интерфейс : Установленный внешний ASPI-интерфейс

Выходной формат : Пользовательский кодировщик
Выбранный битрейт : 128 kBit/s
Качество : Высокий
Добавление ID3-тега : Нет
Утилита сжатия : C:\Program Files\Exact Audio Copy\FLAC\FLAC.EXE
Дополнительные параметры : -6 -V -T "ARTIST=%artist%" -T "TITLE=%title%" -T "ALBUM=%albumtitle%" -T "DATE=%year%" -T "TRACKNUMBER=%tracknr%" -T "GENRE=%genre%" -T "COMMENT=%comment%" -T "BAND=%albuminterpret%" -T "ALBUMARTIST=%albuminterpret%" -T "COMPOSER=%composer%" %haslyrics%–tag-from-file=LYRICS="%lyricsfile%"%haslyrics% -T "DISCNUMBER=%cdnumber%" -T "TOTALDISCS=%totalcds%" -T "TOTALTRACKS=%numtracks%" %hascover%–picture="%coverfile%"%hascover% %source% -o %dest%


TOC извлечённого CD

Трек | Старт | Длительность | Начальный сектор | Конечный сектор
––––––––––––––––––––––––––––––––––-
1 | 0:00.00 | 3:31.37 | 0 | 15861
2 | 3:31.37 | 3:09.68 | 15862 | 30104
3 | 6:41.30 | 3:13.57 | 30105 | 44636
4 | 9:55.12 | 3:07.35 | 44637 | 58696
5 | 13:02.47 | 3:47.10 | 58697 | 75731
6 | 16:49.57 | 3:37.30 | 75732 | 92036
7 | 20:27.12 | 4:00.48 | 92037 | 110084
8 | 24:27.60 | 3:35.67 | 110085 | 126276
9 | 28:03.52 | 2:53.58 | 126277 | 139309
10 | 30:57.35 | 3:20.27 | 139310 | 154336
11 | 34:17.62 | 4:28.30 | 154337 | 174466


Характеристики диапазона извлечения и сообщения об ошибках

Выбранный диапазон

Имя файла C:\BARRY MANILOW 76\Barry Manilow - This One's For You.wav

Пиковый уровень 100.0 %
Скорость извлечения 2.7 X
Качество диапазона 100.0 %
CRC теста 51200DDF
CRC копии 51200DDF
Копирование… OK

Ошибок не произошло


AccurateRip: сводка

Трек 1 отсутствует в базе данных
Трек 2 отсутствует в базе данных
Трек 3 отсутствует в базе данных
Трек 4 отсутствует в базе данных
Трек 5 отсутствует в базе данных
Трек 6 отсутствует в базе данных
Трек 7 отсутствует в базе данных
Трек 8 отсутствует в базе данных
Трек 9 отсутствует в базе данных
Трек 10 отсутствует в базе данных
Трек 11 отсутствует в базе данных

Ни одного трека нет в базе AccurateRip

Конец отчёта

–– CUETools DB Plugin V2.1.3

[CTDB TOCID: GW53Qh.tO10ht8cZr7Y_udvEVaE-] disk not present in database, Submit result: GW53Qh.tO10ht8cZr7Y_udvEVaE- has been uploaded


==== Контрольная сумма отчёта 43651CEA416FCAD46DB14E1EA6BCEB3490566A28B362E5540FF16C0304D1243D ====

foobar2000 1.3.9 / Dynamic Range Meter 1.1.1
log date: 2016-08-02 22:00:08

––––––––––––––––––––––––––––––––––––––––
Analyzed: Barry Manilow / This One's For You
––––––––––––––––––––––––––––––––––––––––

DR Peak RMS Duration Track
––––––––––––––––––––––––––––––––––––––––
DR12 0.00 dB -15.68 dB 3:31 01-This One's For You
DR12 0.00 dB -13.29 dB 3:10 02-Daybreak
DR13 -0.18 dB -15.66 dB 3:14 03-You Oughta Be Home With Me
DR12 0.00 dB -13.78 dB 3:07 04-Jump Shout Boogie
DR11 -0.28 dB -14.96 dB 3:47 05-Weekend In New England
DR12 0.00 dB -13.35 dB 3:37 06-Riders To The Stars
DR13 0.00 dB -14.73 dB 4:01 07-Let Me Go
DR12 0.00 dB -15.15 dB 3:36 08-Looks Like We Made It
DR13 -0.36 dB -15.28 dB 2:54 09-Say The Words
DR12 -0.08 dB -16.06 dB 3:20 10-All The Time
DR12 -0.72 dB -16.80 dB 4:28 11-See The Show Again
––––––––––––––––––––––––––––––––––––––––

Number of tracks: 11
Official DR value: DR12

Samplerate: 44100 Hz
Channels: 2
Bits per sample: 16
Bitrate: 834 kbps
Codec: FLAC
================================================================================

All thanks to reverse77777


See also:
Nitroflare
password: BlondStyle