Subcategories

Bathory - Jubileum volume I - III (1992 - 1998)

Posted By: v3122
Bathory - Jubileum volume I - III (1992 - 1998)

Bathory - Jubileum volume I - III (1992 - 1998)
EAC | Flac(Image) + Cue + Log & MP3 CBR 320Kbps
3CD | Black Mark Production | ~ 1476 or 506 Mb | Scans Included
Thrash / Black Metal / Viking Metal / Heavy Metal

Bathory was essentially a one-man band, fronted by Quorthon and filled out with an endless string of session players who usually only lasted one album.

Based in Sweden, Bathory is widely regarded as a pioneer of the modern black metal sound, and everybody who is anybody in black metal likes to quote Bathory as a big influence

~ discogs

Bathory - Jubileum volume I - III (1992 - 1998):

Bathory - Jubileum volume I - III (1992 - 1998)

Bathory - Jubileum volume I (1992) Repost
EAC | Flac(Image) + Cue + Log & MP3 CBR 320Kbps
Black Mark Production, BMCD 666-7 | ~ 513 or 171 Mb | Scans Included
Thrash / Black Metal / Viking Metal / Heavy Metal

Along with its nearly as seminal companion release (Vol. 2), Jubileum, Vol. 1 features the absolute highlights from the career of Sweden's trailblazing Bathory – a band not only responsible for launching Scandinavia's black metal scene, but for inventing the often intersecting subgenre of Viking metal. Focusing on the band's first six albums, Jubileum, Vol. 1 avoids the chronological order approach and proceeds to mix and match its tracks at will, but this is perhaps for the better given Bathory's wide range of metallic styles. Getting things started are two premiere recordings that, for one reason or another, were left off those classic mid-period albums. The instrumental "Rider at the Gate of Dawn" from 1987 was possibly a little bit ahead of its time, while 1989's "Crawl to Your Cross," although recorded a mere two years later, was conversely behind in terms of subject matter. Paired here, they work just great. "Sacrifice," Bathory's extremely Venom-derived (down to the Cronos-like grunts) submission to 1984's career-launching compilation Scandinavian Metal Attack is next, and from here on out "black to Viking" metal evolution really takes over, with the transitional "Dies Irae" setting up the suitably dramatic "Through Blood by Thunder." Another rare demo recording, 1984's brutally basic "You Don't Move Me (I Don't Give a Fuck)," then precedes what many consider "ground zero" of the Viking metal movement: Blood Fire Death's opening tandem of "Oden's Ride Over Nordland" and "A Fine Day to Die" – both still as awesome to the ears as the day they were first presented to the world in 1988. The second half of Jubileum, Vol. 1 carries on in similar fashion, alternating vivid examples of utmost primitivism like first and second album favorites "War" and "Sadist" with third LP refinements like "Enter the Eternal Fire" and "Equimanthorn," and, of course, very mature offerings from the subsequent trio of Viking metal albums like "Song to Hall Up High," "Under the Runes," and "Blood Fire Death." In summary, pretty much everything that should be here is, and what isn't can be found on the nearly as indispensable Vol. 2 – get them both.

by Eduardo Rivadavia, AMG

Tracklist:

01. Rider At The Gate Of dawn (1:19)
02. Crawl To Your Cross (4:38)
03. Sacrifice (4:15)
04. Dies Irae (5:13)
05. Through Blood By Thunder (6:04)
06. You Don't Move Me (I don't give A Fuck) (3:30)
07. Odens Ride Over Nordland (3:00)
08. A Fine Day To Die (8:54)
09. War (2:16)
10. Enter The Eternal Fire (6:56)
11. Song To Hall Up High (2:43)
12. Sadist (2:59)
13. Under The Runes (5:57)
14. Equimanthorn (3:45)
15. Blood Fire Death (10:29)

EAC extraction logfile from 13. February 2007, 16:46 for CD
Bathory / Jubileum volume I

Used drive : HL-DT-STDVDRRW GSA-2164D Adapter: 4 ID: 0
Read mode : Secure with NO C2, accurate stream, disable cache
Read offset correction : 102
Overread into Lead-In and Lead-Out : No

Used output format : Internal WAV Routines
44.100 Hz; 16 Bit; Stereo

Other options :
Fill up missing offset samples with silence : Yes
Delete leading and trailing silent blocks : No
Native Win32 interface for Win NT & 2000


Range status and errors
Selected range
Filename D:\compartidos mъsica\LANZAMIENTOS NO BORRAR\Bathory\Bathory - Jubileum volume I.wav

Peak level 100.0 %
Range quality 99.9 %
CRC C28EEBF4
Copy OK

No errors occured

End of status report

foobar2000 1.2.9 / Dynamic Range Meter 1.1.1
log date: 2015-09-07 22:42:32

––––––––––––––––––––––––––––––––––––––––
Analyzed: Bathory / Jubileum volume I
––––––––––––––––––––––––––––––––––––––––

DR Peak RMS Duration Track
––––––––––––––––––––––––––––––––––––––––
DR11 -1.60 dB -15.11 dB 1:19 01-Rider At The Gate Of dawn
DR9 0.00 dB -9.86 dB 4:38 02-Crawl To Your Cross
DR10 0.00 dB -11.12 dB 4:15 03-Sacrifice
DR10 0.00 dB -10.62 dB 5:13 04-Dies Irae
DR10 0.00 dB -11.98 dB 6:04 05-Through Blood By Thunder
DR10 0.00 dB -10.69 dB 3:30 06-You Don't Move Me (I don't give A Fuck)
DR10 -1.36 dB -13.23 dB 3:00 07-Odens Ride Over Nordland
DR10 -0.56 dB -11.70 dB 8:54 08-A Fine Day To Die
DR10 -0.60 dB -11.90 dB 2:16 09-War
DR10 0.00 dB -10.97 dB 6:56 10-Enter The Eternal Fire
DR10 -0.94 dB -15.09 dB 2:43 11-Song To Hall Up High
DR9 -0.42 dB -10.81 dB 2:59 12-Sadist
DR11 -0.20 dB -12.79 dB 5:57 13-Under The Runes
DR9 0.00 dB -10.52 dB 3:45 14-Equimanthorn
DR10 -0.01 dB -12.02 dB 10:29 15-Blood Fire Death
––––––––––––––––––––––––––––––––––––––––

Number of tracks: 15
Official DR value: DR10

Samplerate: 44100 Hz
Channels: 2
Bits per sample: 16
Bitrate: 948 kbps
Codec: FLAC

[CUETools log; Date: 07.09.2015 22:42:36; Version: 2.1.4]
[CTDB TOCID: I_9td3cEgvxw9QwH0gs_h9UulpU-] found.
Track | CTDB Status
1 | (12/14) Accurately ripped
2 | (12/14) Accurately ripped
3 | (12/14) Accurately ripped
4 | (12/14) Accurately ripped
5 | (12/14) Accurately ripped
6 | (12/14) Accurately ripped
7 | (12/14) Accurately ripped
8 | (12/14) Accurately ripped
9 | (12/14) Accurately ripped
10 | (12/14) Accurately ripped
11 | (12/14) Accurately ripped
12 | (12/14) Accurately ripped
13 | (11/14) Accurately ripped
14 | (11/14) Accurately ripped
15 | (11/14) Accurately ripped
[AccurateRip ID: 0023caa0-019e9085-c510dd0f] found.
Track [ CRC | V2 ] Status
01 [11095dbb|112c983d] (04+05/25) Accurately ripped
02 [84943a26|ce05f159] (04+05/25) Accurately ripped
03 [d4128a74|6a76894e] (04+05/25) Accurately ripped
04 [774e269e|48694563] (04+05/25) Accurately ripped
05 [7732eaf1|4609c508] (04+05/25) Accurately ripped
06 [e6b71488|79f46969] (04+05/25) Accurately ripped
07 [c59819fd|f33a52ba] (04+05/25) Accurately ripped
08 [4039e945|3988d67a] (04+05/25) Accurately ripped
09 [4f216c3e|cdca9831] (04+05/25) Accurately ripped
10 [3737e453|2c1083f6] (04+05/25) Accurately ripped
11 [3b8bfff1|7488b387] (04+05/25) Accurately ripped
12 [1b00ff09|db798502] (04+05/25) Accurately ripped
13 [ea4f44ba|65db33be] (04+05/25) Accurately ripped
14 [105492ec|a0853eeb] (04+05/25) Accurately ripped
15 [433f0c30|0a93ef49] (03+05/24) Accurately ripped
Offsetted by -628:
01 [56542d8b] (03/25) Accurately ripped
02 [9c4ec3fb] (03/25) Accurately ripped
03 [776066a8] (03/25) Accurately ripped
04 [763a8f29] (03/25) Accurately ripped
05 [917211c9] (03/25) Accurately ripped
06 [3156fea0] (03/25) Accurately ripped
07 [1feb8c3a] (03/25) Accurately ripped
08 [0ab1b4a4] (03/25) Accurately ripped
09 [0f3b148a] (03/25) Accurately ripped
10 [44e1412f] (03/25) Accurately ripped
11 [0900fb49] (03/25) Accurately ripped
12 [c63e2211] (03/25) Accurately ripped
13 [05506fd2] (03/25) Accurately ripped
14 [112b676c] (03/25) Accurately ripped
15 [cb67ce54] (03/24) Accurately ripped

Track Peak [ CRC32 ] [W/O NULL] [ LOG ]
– 100,0 [90F75A2B] [C28EEBF4] W/O NULL
01 83,1 [C48B0EEE] [73B08B96]
02 100,0 [8113A1E0] [D4A0AC00]
03 100,0 [628D1FAA] [43383ADB]
04 100,0 [7CFFD2E4] [ED7EFBFC]
05 100,0 [D3E4359E] [FD50370C]
06 100,0 [258E751A] [A0B9ADBB]
07 85,5 [26BE7549] [FD5876A7]
08 93,7 [E2FAC8BB] [06C032E1]
09 93,2 [EC04B9FB] [4FAD1859]
10 100,0 [D86191F9] [10B62293]
11 89,7 [55B17C94] [86EE51BC]
12 95,2 [9103E72B] [58FFD9FC]
13 97,7 [B4477D34] [DBC620FD]
14 100,0 [CCE53A01] [74B0AFCC]
15 99,8 [9113182F] [42B33451]

Bathory - Jubileum volume I - III (1992 - 1998)

Bathory - Jubileum volume II (1993) Repost
EAC | Flac(Image) + Cue + Log & MP3 CBR 320Kbps
Black Mark Production, 666-8 | ~ 521 or 177 Mb | Scans Included
Thrash / Black Metal / Viking Metal / Heavy Metal

Essentially a companion release for the first, nearly impeccable installment from a year earlier, Jubileum, Vol. 2 covers the same crucial span of six albums and eight revolutionary years that established Sweden's Bathory as iconic godfathers of the Scandinavian black and Viking metal movements. Also taking the same approach as its predecessor, the set avoids chronological sequencing in order to sprinkle Bathory highlights in seemingly arbitrary fashion. The resulting hodgepodge of metal classics makes for fascinating comparisons between the band's unbelievably primitive early efforts and the astoundingly refined achievements that followed. Among the former, primordial poundings like "Possessed," "Raise the Dead," and "Total Destruction" were as simple as they were influential for the black metal masses that followed. Likewise, advanced Norse metal epics such as "One Rode to Asa Bay," "Shores in Flames," and "Twilight of the Gods" left as indelible a mark as their predecessors for future generations to build upon and improve – painfully out-of-tune vocals and all. And somewhere between the two strains, one finds the utterly manic, Slayer-like thrashing of fan favorite "The Golden Walls of Heaven." Finally, precious rarities and unreleased tracks are interspersed among these well-known standards – namely the amusing outtake "Burning Leather," the previously compilation-only "The Return of the Darkness and Evil," and, perhaps best of all, the first demo treasure "Die in Fire." All in all, Jubileum, Vol. 2 – like its even more essential precursor – stands as a necessary bookend to any serious extreme metal collection.

by Eduardo Rivadavia, AMG

Tracklist:

01. The Return Of The Darkness And Evil (4:59)
02. Burnin' Leather (3:54)
03. One Rode To Asa Bay (9:20)
04. The Golden Walls Of Heaven (5:23)
05. Call From The Grave (4:58)
06. Die In Fire (3:36)
07. Shores In Flames (10:44)
08. Possessed (2:40)
09. Raise The Dead (3:40)
10. Total Destruction (3:50)
11. Bond Of Blood (7:37)
12. Twilight Of The Gods (13:40)

EAC extraction logfile from 14. February 2007, 10:35 for CD
Bathory / Jubileum Volume II

Used drive : HL-DT-STDVDRRW GSA-2164D Adapter: 4 ID: 0
Read mode : Secure with NO C2, accurate stream, disable cache
Read offset correction : 102
Overread into Lead-In and Lead-Out : No

Used output format : Internal WAV Routines
44.100 Hz; 16 Bit; Stereo

Other options :
Fill up missing offset samples with silence : Yes
Delete leading and trailing silent blocks : No
Native Win32 interface for Win NT & 2000


Range status and errors
Selected range
Filename D:\compartidos mъsica\LANZAMIENTOS NO BORRAR\Bathory\Bathory - Jubileum Volume II.wav

Peak level 100.0 %
Range quality 100.0 %
CRC D08F03B8
Copy OK

No errors occured

End of status report

foobar2000 1.2.9 / Dynamic Range Meter 1.1.1
log date: 2015-09-07 22:57:01

––––––––––––––––––––––––––––––––––––––––
Analyzed: Bathory / Jubileum Volume II
––––––––––––––––––––––––––––––––––––––––

DR Peak RMS Duration Track
––––––––––––––––––––––––––––––––––––––––
DR10 -0.01 dB -13.08 dB 4:59 01-The Return Of The Darkness And Evil
DR10 0.00 dB -10.46 dB 3:54 02-Burnin' Leather
DR10 0.00 dB -11.09 dB 9:20 03-One Rode To Asa Bay
DR9 0.00 dB -9.98 dB 5:23 04-The Golden Walls Of Heaven
DR9 0.00 dB -10.80 dB 4:58 05-Call From The Grave
DR9 0.00 dB -10.26 dB 3:36 06-Die In Fire
DR11 -0.63 dB -13.80 dB 10:44 07-Shores In Flames
DR10 -0.89 dB -11.77 dB 2:40 08-Possessed
DR10 -1.07 dB -13.03 dB 3:40 09-Raise The Dead
DR9 0.00 dB -10.87 dB 3:50 10-Total Destruction
DR10 0.00 dB -12.13 dB 7:37 11-Bond Of Blood
DR10 -0.02 dB -13.55 dB 13:40 12-Twilight Of The Gods
––––––––––––––––––––––––––––––––––––––––

Number of tracks: 12
Official DR value: DR10

Samplerate: 44100 Hz
Channels: 2
Bits per sample: 16
Bitrate: 949 kbps
Codec: FLAC

[CUETools log; Date: 07.09.2015 22:46:00; Version: 2.1.4]
[CTDB TOCID: WEvv2dP5FqSgBLO0FRuUrp3z7KE-] found.
Track | CTDB Status
1 | (15/15) Accurately ripped
2 | (11/15) Accurately ripped
3 | (15/15) Accurately ripped
4 | (15/15) Accurately ripped
5 | (15/15) Accurately ripped
6 | (15/15) Accurately ripped
7 | (15/15) Accurately ripped
8 | (15/15) Accurately ripped
9 | (15/15) Accurately ripped
10 | (15/15) Accurately ripped
11 | (13/15) Accurately ripped
12 | (13/15) Accurately ripped
[AccurateRip ID: 001e5a3e-011cbbb7-9d116c0c] found.
Track [ CRC | V2 ] Status
01 [d106cc9b|bb5353a0] (04+03/23) Accurately ripped
02 [156a7aab|0097525f] (04+03/21) Accurately ripped
03 [581e0d46|c0712d8b] (04+03/23) Accurately ripped
04 [af960da5|a765b1cc] (04+03/23) Accurately ripped
05 [732d8287|55a77950] (04+03/23) Accurately ripped
06 [8392fcee|0d0b0204] (04+03/23) Accurately ripped
07 [be359d47|d1bfe393] (04+03/22) Accurately ripped
08 [b45a7434|db1643b5] (04+03/23) Accurately ripped
09 [2288e88b|c3600ab4] (04+03/23) Accurately ripped
10 [e2c820d5|ffe3213b] (04+03/23) Accurately ripped
11 [e3e73578|67608ecf] (04+03/22) Accurately ripped
12 [8cb9ff6d|73725400] (04+03/22) Accurately ripped
Offsetted by 2419:
01 [07c9501a] (12/23) Accurately ripped
02 [ee19b9ff] (12/21) Accurately ripped
03 [489739b5] (12/23) Accurately ripped
04 [44666c65] (12/23) Accurately ripped
05 [0e5b3cef] (12/23) Accurately ripped
06 [de8fef5e] (12/23) Accurately ripped
07 [7df33706] (11/22) Accurately ripped
08 [86bd56d0] (12/23) Accurately ripped
09 [9e59bd37] (12/23) Accurately ripped
10 [5847d0bb] (12/23) Accurately ripped
11 [53525d95] (11/22) Accurately ripped
12 [9c4174dc] (11/22) Accurately ripped
Offsetted by -628:
01 [a04f6157] (00/23) No match (V2 was not tested)
02 [18d980fb] (00/21) No match (V2 was not tested)
03 [bc8ef1c2] (00/23) No match (V2 was not tested)
04 [30299495] (00/23) No match (V2 was not tested)
05 [ac687a4d] (00/23) No match (V2 was not tested)
06 [3c76fa3c] (00/23) No match (V2 was not tested)
07 [c24c5b03] (00/22) No match (V2 was not tested)
08 [fcf0e1a4] (00/23) No match (V2 was not tested)
09 [1613323b] (00/23) No match (V2 was not tested)
10 [d9c2cfed] (00/23) No match (V2 was not tested)
11 [6473722c] (00/22) No match (V2 was not tested)
12 [88afcd81] (00/22) No match (V2 was not tested)

Track Peak [ CRC32 ] [W/O NULL] [ LOG ]
– 100,0 [215767CD] [D08F03B8] W/O NULL
01 99,8 [A2B841EB] [CDD1D4B2]
02 100,0 [EDE8C269] [BD817845]
03 100,0 [8C4C1571] [0A981FA9]
04 100,0 [7162D6CF] [A51B4B57]
05 100,0 [6A9A0F1E] [31ABD724]
06 100,0 [677B9A40] [03E8697B]
07 92,9 [526EE41A] [A357506C]
08 90,2 [AF4B59BB] [F2F2924F]
09 88,4 [C6C9FEF3] [91608690]
10 99,9 [B0804C51] [324D9184]
11 100,0 [318CB212] [D8BF8F65]
12 99,7 [45D89BDA] [1F98B503]

Bathory - Jubileum volume I - III (1992 - 1998)

Bathory - Jubileum volume III (1998) Repost
EAC | Flac(Image) + Cue + Log & MP3 CBR 320Kbps
Black Mark Production, BMCD 666-16 | ~ 442 or 158 Mb | Scans Included
Thrash / Black Metal / Viking Metal / Heavy Metal

The third installment of Bathory's retrospective Jubileum series is at once very similar and quite distinct from its two predecessors. Like them, it showcases some of the Swedish black metal pioneers' best moments, along with unearthed, previously unheard rarities; but, while volumes one and two covered the same historical period (1984-1991), Jubileum, Vol. 3 focuses on the subsequent era of Bathory's evolution, a brief but convoluted spell from 1994 to 1996. Often regarded as a time of confused rediscovery, this era effectively marked the un-retirement of Bathory mastermind Quorthon, and the three albums profiled on Jubileum, Vol. 3 clearly reflect his search for a new direction even whilst revisiting various angles of his past exploits. The selections from 1994's comeback Requiem, for instance, (including "War Machine," "Pax Vobiscum," and the particularly memorable "Crosstitution") tend to filter the bludgeoning, unrefined black metal typical of the band's first albums through a seldom used death metal prism. Only two examples from 1995's very spotty Octagon ("Immaculate Pinetreeroad #930" and "Sociopath") make the cut here; and with good reason, since their deconstructed husks of punk and thrash suggest a truly lost Quorthon, and come corroded by the worst production values of Bathory's career – and that's saying something! Thankfully, the three impressive offerings from 1996's Blood on Ice ("The Lake," "The Stallion" and the über-anthemic "Gods of Thunder, of Wind and of Rain") manage a stirring return to form by rekindling the embers of Viking metal glory which many consider Bathory's greatest achievements. As for those aforesaid rarities, they range from primordial near-demos like "Satan my Master" and the brilliantly raw "Witchcraft" (both from 1984), to an unused instrumental theme (the wonderfully perverse "In Nomine Satanas"), to assorted Octagon session outtakes ("Resolution Greed" and "Genocide": better than the LP choices), to a true curiosity: a portion of the multi-tracked backing vocals heard on the Hammerheart classic "Valhalla." In summary, whilst most would agree that Jubileum, Vol. 3 covers a relatively subpar slice of Bathory's long career, this also makes it an ideal purchase for less than devout listeners wishing to sample the crème de la crème from these albums in a single-disc collection.

by Eduardo Rivadavia, AMG

Tracklist:

01. 33 Something (3:15)
02. Satan My Master (2:06)
03. The Lake (6:43)
04. Crosstitution (3:17)
05. In Nomine Satanas (6:25)
06. Immaculate Pinetreeroad #930 (2:48)
07. War Machine (3:20)
08. The Stallion (5:14)
09. Resolution Greed (4:14)
10. Witchcraft (2:49)
11. Valhalla (Backing Vocals Multitrack Sample) (1:38)
12. Sociopath (3:11)
13. Pax Vobiscum (4:12)
14. Genocide (4:35)
15. Gods Of Thunder Of Wind And Of Rain (5:42)

EAC extraction logfile from 17. February 2007, 8:25 for CD
BATHORY / Jubileum volume III

Used drive : HL-DT-STDVDRRW GSA-2164D Adapter: 4 ID: 0
Read mode : Secure with NO C2, accurate stream, disable cache
Read offset correction : 102
Overread into Lead-In and Lead-Out : No

Used output format : Internal WAV Routines
44.100 Hz; 16 Bit; Stereo

Other options :
Fill up missing offset samples with silence : Yes
Delete leading and trailing silent blocks : No
Native Win32 interface for Win NT & 2000


Range status and errors
Selected range
Filename D:\compartidos mъsica\Bathory\BATHORY - Jubileum volume III.wav

Peak level 99.9 %
Range quality 100.0 %
CRC E0C9B072
Copy OK

No errors occured

End of status report

foobar2000 1.2.9 / Dynamic Range Meter 1.1.1
log date: 2015-09-07 22:56:30

––––––––––––––––––––––––––––––––––––––––
Analyzed: BATHORY / Jubileum volume III
––––––––––––––––––––––––––––––––––––––––

DR Peak RMS Duration Track
––––––––––––––––––––––––––––––––––––––––
DR9 -0.26 dB -10.18 dB 3:15 01-33 Something
DR8 -0.16 dB -8.66 dB 2:06 02-Satan My Master
DR8 -0.15 dB -10.06 dB 6:43 03-The Lake
DR8 -0.19 dB -8.87 dB 3:17 04-Crosstitution
DR7 -0.17 dB -8.84 dB 6:25 05-In Nomine Satanas
DR8 -0.20 dB -9.23 dB 2:48 06-Immaculate Pinetreeroad #930
DR8 -0.10 dB -9.09 dB 3:20 07-War Machine
DR7 0.00 dB -8.62 dB 5:14 08-The Stallion
DR8 -0.13 dB -9.38 dB 4:14 09-Resolution Greed
DR8 -0.11 dB -9.35 dB 2:49 10-Witchcraft
DR8 -0.20 dB -10.91 dB 1:38 11-Valhalla (Backing Vocals Multitrack Sample)
DR8 -0.07 dB -8.26 dB 3:11 12-Sociopath
DR7 -0.03 dB -8.27 dB 4:12 13-Pax Vobiscum
DR8 -0.12 dB -8.71 dB 4:35 14-Genocide
DR7 -0.03 dB -9.11 dB 5:42 15-Gods Of Thunder Of Wind And Of Rain
––––––––––––––––––––––––––––––––––––––––

Number of tracks: 15
Official DR value: DR8

Samplerate: 44100 Hz
Channels: 2
Bits per sample: 16
Bitrate: 983 kbps
Codec: FLAC

[CUETools log; Date: 07.09.2015 22:49:35; Version: 2.1.4]
[CTDB TOCID: dfO3tK9.Apytb7T2v1nAPZPBAC0-] found.
Track | CTDB Status
1 | (14/14) Accurately ripped
2 | (14/14) Accurately ripped
3 | (14/14) Accurately ripped
4 | (14/14) Accurately ripped
5 | (14/14) Accurately ripped
6 | (14/14) Accurately ripped
7 | (14/14) Accurately ripped
8 | (14/14) Accurately ripped
9 | (14/14) Accurately ripped
10 | (14/14) Accurately ripped
11 | (14/14) Accurately ripped
12 | (14/14) Accurately ripped
13 | (14/14) Accurately ripped
14 | (14/14) Accurately ripped
15 | (14/14) Accurately ripped
[AccurateRip ID: 00204778-016d50ca-c50df00f] found.
Track [ CRC | V2 ] Status
01 [e79981d8|46029dac] (06+05/15) Accurately ripped
02 [083f2726|12213697] (06+05/15) Accurately ripped
03 [ceabade0|7ed59842] (06+05/15) Accurately ripped
04 [6dc5d9d6|5c11293d] (06+05/15) Accurately ripped
05 [7fa79ead|3c591396] (06+05/15) Accurately ripped
06 [c065fb30|5ac69546] (06+05/15) Accurately ripped
07 [d46aa028|d5c247eb] (06+05/15) Accurately ripped
08 [101f2758|92d99417] (06+05/15) Accurately ripped
09 [e5ac2516|5d9df653] (06+05/15) Accurately ripped
10 [29aae5b8|6baf0260] (06+05/15) Accurately ripped
11 [a71c4d35|0f5bbe8c] (06+05/15) Accurately ripped
12 [f18ebb3f|05557e4a] (06+05/15) Accurately ripped
13 [6da46713|061b4ad0] (06+05/15) Accurately ripped
14 [e4fba57f|3a573c30] (05+05/14) Accurately ripped
15 [157ce119|c4a6b7d1] (05+05/14) Accurately ripped
Offsetted by -693:
01 [39f3039c] (02/15) Accurately ripped
02 [cdcc7f21] (02/15) Accurately ripped
03 [ff292f21] (02/15) Accurately ripped
04 [4633322a] (02/15) Accurately ripped
05 [a7188414] (02/15) Accurately ripped
06 [fedf57f2] (02/15) Accurately ripped
07 [8c84e815] (02/15) Accurately ripped
08 [29eb874f] (02/15) Accurately ripped
09 [77e93410] (02/15) Accurately ripped
10 [bbaf1b8e] (02/15) Accurately ripped
11 [2fe6becd] (02/15) Accurately ripped
12 [c23a90f8] (02/15) Accurately ripped
13 [c76097b9] (02/15) Accurately ripped
14 [cd447e3f] (02/14) Accurately ripped
15 [787a0e4f] (02/14) Accurately ripped
Offsetted by -664:
01 [bc3aa0b8] (00/15) No match (V2 was not tested)
02 [b36e4b0e] (00/15) No match (V2 was not tested)
03 [f8545318] (00/15) No match (V2 was not tested)
04 [08515836] (00/15) No match (V2 was not tested)
05 [536fc635] (00/15) No match (V2 was not tested)
06 [7ea8c3a0] (00/15) No match (V2 was not tested)
07 [a1ff8f00] (00/15) No match (V2 was not tested)
08 [ac598e60] (00/15) No match (V2 was not tested)
09 [6246b1c6] (00/15) No match (V2 was not tested)
10 [45a49688] (00/15) No match (V2 was not tested)
11 [43aa8e75] (00/15) No match (V2 was not tested)
12 [f0e862b7] (00/15) No match (V2 was not tested)
13 [9d342563] (00/15) No match (V2 was not tested)
14 [ed4a4f7f] (00/14) No match (V2 was not tested)
15 [75714ee9] (00/14) No match (V2 was not tested)

Track Peak [ CRC32 ] [W/O NULL] [ LOG ]
– 99,9 [9949A8A5] [E0C9B072] W/O NULL
01 97,0 [76792FC0] [89152B9B]
02 98,1 [25037F79] [755F9C4E]
03 98,3 [F87D879B] [E6962F97]
04 97,7 [25A67AC0] [E91A0260]
05 98,0 [4F5B0296] [9C4C590E]
06 97,6 [06BC671B] [211E5084]
07 98,8 [E680EDCD] [B2E1F394]
08 99,9 [5FD2D4A0] [D571ABFB]
09 98,5 [CF4F6B6F] [EDD3247C]
10 98,7 [B26E31A8] [AA9A7271]
11 97,7 [1B89BB58] [F9CCAD07]
12 99,2 [E5E7E3F5] [1EDD94C8]
13 99,6 [59B42D6C] [52D27976]
14 98,6 [5B8BCD50] [03ABBF32]
15 99,6 [438D4EEE] [D416DC99]

* * *

All thanks go to the original releaser

Download Bathory - Jubileum volume I - III (1992 - 1998):