Tags
Language
Tags

Bebo Valdes & Chucho Valdes - Juntos Para Siempre (2009) {Sony Music Latin}

Posted By: tiburon
Bebo Valdes & Chucho Valdes - Juntos Para Siempre (2009) {Sony Music Latin}

Bebo Valdes & Chucho Valdes - Juntos Para Siempre (2009) {Sony Music Latin}
EAC 1.6 | FLAC tracks level 8 | Cue+Log+M3U | Full Scans 300dpi | 213MB + 5% Recovery
MP3 CBR 320 Kbps | 129MB + 5% Recovery
Genre: Latin Jazz
Bebo Valdes & Chucho Valdes - Juntos Para Siempre (2009) {Sony Music Latin}

In 2009 Chucho Valdes, a pianist, instrumentalist, and composer who already had four Grammy Awards and is regarded by specialists as one of the top four jazz players of the world, won the Grammy in the category of Best Latin Jazz Album. He shared the award with his father, Bebo Valdes, with the album Juntos Para Siempre (Together Forever). Father and son, both Cuban piano virtuosos and exceptionally talented composers got together to record this example of their musical greatness after their tour “Juntos para siempre” in Spain.
Track List
01. Preludio Para Bebo 5:04
02. Descarga Valdes 4:50
03. Tres Palabras 4:42
04. Rareza Del Siglo 4:11
05. Tea For Two 5:04
06. Son De La Loma 3:29
07. La Gloria Eres Tu 3:47
08. A Chucho 4:53
09. Sabor A Mi 5:29
10. Perdido 3:12
11. Lagrimas Negras 3:44
12. La Conga Del Dentista 3:19

musicians
Bebo Valdes - piano
Chucho Valdes - piano

Produced by Fernando Trueba and Nat Chediak



Exact Audio Copy V1.6 from 23. October 2020

EAC extraction logfile from 31. October 2021, 16:35

Bebo Valdes-Chucho Valdes / Juntos Para Siempre

Used drive : PLEXTOR CD-R PREMIUM2 Adapter: 1 ID: 1

Read mode : Secure
Utilize accurate stream : Yes
Defeat audio cache : Yes
Make use of C2 pointers : No

Read offset correction : 30
Overread into Lead-In and Lead-Out : No
Fill up missing offset samples with silence : Yes
Delete leading and trailing silent blocks : No
Null samples used in CRC calculations : Yes
Used interface : Native Win32 interface for Win NT & 2000
Gap handling : Appended to previous track

Used output format : User Defined Encoder
Selected bitrate : 128 kBit/s
Quality : High
Add ID3 tag : No
Command line compressor : C:\Program Files\Exact Audio Copy\Flac\flac.exe
Additional command line options : -8 -V -T "ARTIST=%artist%" -T "TITLE=%title%" -T "ALBUM=%albumtitle%" -T "DATE=%year%" -T "TRACKNUMBER=%tracknr%" -T "TOTALTRACKS=%numtracks%" -T "GENRE=%genre%" -T "ALBUMARTIST=%albumartist%" -T "ALBUM ARTIST=%albumartist%" -T "COMMENT=EAC Secure Mode, Test & Copy, AccurateRip, FLAC -8" %source%


TOC of the extracted CD

Track | Start | Length | Start sector | End sector
––––––––––––––––––––––––––––-
1 | 0:00.00 | 5:06.63 | 0 | 23012
2 | 5:06.63 | 4:51.74 | 23013 | 44911
3 | 9:58.62 | 4:44.23 | 44912 | 66234
4 | 14:43.10 | 4:13.13 | 66235 | 85222
5 | 18:56.23 | 5:06.54 | 85223 | 108226
6 | 24:03.02 | 3:31.61 | 108227 | 124112
7 | 27:34.63 | 3:48.71 | 124113 | 141283
8 | 31:23.59 | 4:55.16 | 141284 | 163424
9 | 36:19.00 | 5:31.57 | 163425 | 188306
10 | 41:50.57 | 3:14.01 | 188307 | 202857
11 | 45:04.58 | 3:46.13 | 202858 | 219820
12 | 48:50.71 | 3:19.38 | 219821 | 234783


Track 1

Filename c:\MyRip\01 - Preludio Para Bebo.wav

Pre-gap length 0:00:02.00

Peak level 98.7 %
Extraction speed 3.5 X
Track quality 100.0 %
Test CRC 3F8E7ADD
Copy CRC 3F8E7ADD
Accurately ripped (confidence 11) [B64AA90C] (AR v2)
Copy OK

Track 2

Filename c:\MyRip\02 - Descarga Valdes.wav

Pre-gap length 0:00:02.01

Peak level 97.2 %
Extraction speed 3.5 X
Track quality 100.0 %
Test CRC F196F35E
Copy CRC F196F35E
Accurately ripped (confidence 11) [39329B20] (AR v2)
Copy OK

Track 3

Filename c:\MyRip\03 - Tres Palabras.wav

Pre-gap length 0:00:02.00

Peak level 98.0 %
Extraction speed 3.5 X
Track quality 100.0 %
Test CRC 3537E89A
Copy CRC 3537E89A
Accurately ripped (confidence 11) [4981C255] (AR v2)
Copy OK

Track 4

Filename c:\MyRip\04 - Rareza Del Siglo.wav

Pre-gap length 0:00:02.00

Peak level 99.1 %
Extraction speed 3.4 X
Track quality 100.0 %
Test CRC 760C90A4
Copy CRC 760C90A4
Accurately ripped (confidence 11) [BAA933C8] (AR v2)
Copy OK

Track 5

Filename c:\MyRip\05 - Tea For Two.wav

Pre-gap length 0:00:02.00

Peak level 96.5 %
Extraction speed 3.2 X
Track quality 99.9 %
Test CRC B7E4E68A
Copy CRC B7E4E68A
Accurately ripped (confidence 12) [C83001F3] (AR v2)
Copy OK

Track 6

Filename c:\MyRip\06 - Son De La Loma.wav

Pre-gap length 0:00:02.00

Peak level 97.3 %
Extraction speed 2.9 X
Track quality 99.9 %
Test CRC C8DFF44A
Copy CRC C8DFF44A
Accurately ripped (confidence 12) [50836D45] (AR v2)
Copy OK

Track 7

Filename c:\MyRip\07 - La Gloria Eres Tu.wav

Pre-gap length 0:00:02.00

Peak level 87.8 %
Extraction speed 3.5 X
Track quality 100.0 %
Test CRC 00353B16
Copy CRC 00353B16
Accurately ripped (confidence 12) [C0F585D9] (AR v2)
Copy OK

Track 8

Filename c:\MyRip\08 - A Chucho.wav

Pre-gap length 0:00:02.00

Peak level 98.2 %
Extraction speed 3.6 X
Track quality 100.0 %
Test CRC 2845C03D
Copy CRC 2845C03D
Accurately ripped (confidence 12) [55DDD06C] (AR v2)
Copy OK

Track 9

Filename c:\MyRip\09 - Sabor A Mi.wav

Pre-gap length 0:00:02.00

Peak level 97.7 %
Extraction speed 3.6 X
Track quality 100.0 %
Test CRC BAD274DF
Copy CRC BAD274DF
Accurately ripped (confidence 12) [43846A69] (AR v2)
Copy OK

Track 10

Filename c:\MyRip\10 - Perdido.wav

Pre-gap length 0:00:02.00

Peak level 97.4 %
Extraction speed 3.4 X
Track quality 100.0 %
Test CRC 32D85A57
Copy CRC 32D85A57
Accurately ripped (confidence 12) [4EFDAB35] (AR v2)
Copy OK

Track 11

Filename c:\MyRip\11 - Lagrimas Negras.wav

Pre-gap length 0:00:02.00

Peak level 98.3 %
Extraction speed 3.5 X
Track quality 100.0 %
Test CRC A35ED3DA
Copy CRC A35ED3DA
Accurately ripped (confidence 12) [E2D67618] (AR v2)
Copy OK

Track 12

Filename c:\MyRip\12 - La Conga Del Dentista.wav

Pre-gap length 0:00:02.00

Peak level 97.2 %
Extraction speed 3.4 X
Track quality 100.0 %
Test CRC 4F38BEA5
Copy CRC 4F38BEA5
Accurately ripped (confidence 12) [11AEF6FF] (AR v2)
Copy OK


All tracks accurately ripped

No errors occurred

End of status report

–– CUETools DB Plugin V2.1.6

[CTDB TOCID: kUG8iVNljwnOsTt90G9LMzzzvPs-] found
Submit result: kUG8iVNljwnOsTt90G9LMzzzvPs- has been confirmed
Track | CTDB Status
1 | (30/30) Accurately ripped
2 | (30/30) Accurately ripped
3 | (30/30) Accurately ripped
4 | (30/30) Accurately ripped
5 | (30/30) Accurately ripped
6 | (30/30) Accurately ripped
7 | (30/30) Accurately ripped
8 | (30/30) Accurately ripped
9 | (30/30) Accurately ripped
10 | (30/30) Accurately ripped
11 | (30/30) Accurately ripped
12 | (30/30) Accurately ripped


==== Log checksum F1418165907DBA7A7E95CC2270DB4D25E880680F1FBC4052CC2B1320D558ED75 ====

Bebo Valdes & Chucho Valdes - Juntos Para Siempre (2009) {Sony Music Latin}
Bebo Valdes & Chucho Valdes - Juntos Para Siempre (2009) {Sony Music Latin}