Subcategories

Jeremy Beck - Never Final, Never Gone, Shadows and Light, 4 Piano Pieces, Violin Sonata No. 2, Flute Sonata, Kopeyia

Posted By: tapaz9
Jeremy Beck - Never Final, Never Gone, Shadows and Light, 4 Piano Pieces, Violin Sonata No. 2, Flute Sonata, Kopeyia

Jeremy Beck - Never Final, Never Gone, Shadows and Light, 4 Piano Pieces, Violin Sonata No. 2, Flute Sonata, Kopeyia
Classical | EAC: FLAC+Cue+Log | 1 Cd, Covers | 236 Mb
Date: 2008

Never Final, Never Gone is Beck's third Innova CD and consists of works that are predominantly "early" for Beck, dating from 1988 to 1996, though all of the recordings, save that of title work and the percussion piece Kopeyia, were made in the twenty first century. It is apparent from the start that Beck's concern for communication and naturally evolved dramatic form was already in place at this stage of his endeavors. The Toccata from the Four Piano Pieces is the earliest work, dating from 1988; it's a spirited and attractive encore, which immediately imparts a feeling of warmth and familiarity; the remaining piano pieces are either expressive or rhythmically dynamic and are played with care and enthusiasm by pianist Heather Coltman. Kopeyia is a joyous din of spicy rhythm that sounds almost like kids jamming on pots and pans in the public park, until you realize that this is the Percussion Ensemble of the University of Northern Iowa. It takes a certain amount of skill to write something for a formal ensemble that comes out sounding informal, and this is what Beck has achieved.

Also included on the program are two works for solo instrument and piano, a sonata for flute, and Beck's Sonata No. 2 for violin. The flute sonata was originally premiered by legendary flute virtuoso Alexa Still; here it is played by Cynthia Ellis with Roberta Garten as accompanist. The sonata takes considerable advantage of the natural voice of the flute and the various, scalar gestures and trills native to the instrument but never falls into a pit of diaphanousness; it is lightly neo-classical, but not dated sounding. The Violin Sonata, played by Tatiana Razoumova of the Nevsky String Quartet with pianist Maria Kolaiko, is also well-suited to the instrument, but here the accompaniment and soloist are more strongly linked, working toward a common emotional goal. The remaining piece, the string quartet Shadows & Light, is in a tougher idiom than the rest, informed by the example of Russian music heard when Beck was teaching in St. Petersburg in 1993. Although the premiere of the piece was given in Iowa, here it is played by the Nevsky String Quartet, a Russian group, and they get just the right balance of lyricism and bite out of the work.

Never Final, Never Gone, at least in part, represents a continuation of some of the concepts visited in his previous release, pause, feel, and hark, although with less of a programmatic feel in some cases. It shows that abstraction is not alien to Beck's vocabulary, and the wide geographic distribution of some of these pieces – and the artists for whom they are intended – demonstrates that Beck likes to tailor his work to fit the occasion wherever he is. This sense of relating one's work to the place one is in is a thread of endeavor that stretches from Adémar de Chabannes – the first Western composer whose name we know – up through Jelly Roll Morton and beyond. Jeremy Beck respects and values this tradition; by relating his work in this way, Beck is able to establish indissoluble links to places and people even though life moves one around. In this sense, the resultant break is indeed "never final," and the connections are "never gone."
Uncle Dave Lewis @ AllMusic
Tracks:

01. Shadows and Light - I. — [0:03:15.27]
02. II. — [0:10:50.47]
03. 4 Piano Pieces - I. Prelude [0:01:41.70]
04. II. Dance [0:01:22.20]
05. III. Meditation [0:01:24.03]
06. IV. Toccata [0:03:09.67]
07. Violin Sonata No. 2 - I. Rapture [0:06:39.71]
08. II. Reminiscence [0:06:21.15]
09. Never Final, Never Gone [0:02:22.40]
10. Flute Sonata - I. Maestoso [0:04:28.27]
11. II. Allegro giocoso [0:01:39.16]
12. III. Andante con moto - Grazioso [0:03:31.52]
13. Kopeyia [0:05:15.23]


Exact Audio Copy V1.0 beta 3 from 29. August 2011

EAC extraction logfile from 12. September 2013, 23:45

Jeremy Beck / Never Final, Never Gone, Shadows and Light, 4 Piano Pieces, Violin Sonata No. 2, Flute Sonata, Kopeyia (Chamberlain)

Used drive : TSSTcorpCDDVDW SH-S223C Adapter: 2 ID: 1

Read mode : Secure
Utilize accurate stream : Yes
Defeat audio cache : Yes
Make use of C2 pointers : No

Read offset correction : 697
Overread into Lead-In and Lead-Out : No
Fill up missing offset samples with silence : Yes
Delete leading and trailing silent blocks : No
Null samples used in CRC calculations : Yes
Used interface : Native Win32 interface for Win NT & 2000

Used output format : User Defined Encoder
Selected bitrate : 896 kBit/s
Quality : High
Add ID3 tag : No
Command line compressor : C:\Program Files (x86)\Exact Audio Copy\FLAC\FLAC.EXE
Additional command line options : -V -0 -T "COMMENT=Ripped by Tapaz9" -T "artist=%artist%" -T "title=%title%" -T "album=%albumtitle%" -T "date=%year%" -T "tracknumber=%tracknr%" -T "genre=%genre%" %source%


TOC of the extracted CD

Track | Start | Length | Start sector | End sector
––––––––––––––––––––––––––––-
1 | 0:00.00 | 3:15.27 | 0 | 14651
2 | 3:15.27 | 10:50.47 | 14652 | 63448
3 | 14:05.74 | 1:41.70 | 63449 | 71093
4 | 15:47.69 | 1:22.20 | 71094 | 77263
5 | 17:10.14 | 1:24.03 | 77264 | 83566
6 | 18:34.17 | 3:09.67 | 83567 | 97808
7 | 21:44.09 | 6:39.71 | 97809 | 127804
8 | 28:24.05 | 6:21.15 | 127805 | 156394
9 | 34:45.20 | 2:22.40 | 156395 | 167084
10 | 37:07.60 | 4:28.27 | 167085 | 187211
11 | 41:36.12 | 1:39.16 | 187212 | 194652
12 | 43:15.28 | 3:31.52 | 194653 | 210529
13 | 46:47.05 | 5:15.23 | 210530 | 234177


Range status and errors

Selected range

Filename F:\Musique\Beck, Jeremy\Beck_NeverFinalNeverGone\Jeremy Beck - Never Final, Never Gone, Shadows and Light, 4 Piano Pieces, Violin Sonata No. 2, Flute Sonata, Kopeyia.wav

Peak level 84.8 %
Extraction speed 13.2 X
Range quality 100.0 %
Copy CRC 3DCB604C
Copy OK

No errors occurred

End of status report

==== Log checksum DD7D623D9B2A18A063D4C99CE93129D1EB2A7F565E67A0164358A7792FB00ABE ====

No Mirrors and Torrent-uploads Please

For more classical music check out My Avax blog