Tags
Language
Tags

Bee Gees - Best Of Bee Gees Vol. 2 (1973) {2008, Reissue}

Posted By: popsakov
Bee Gees - Best Of Bee Gees Vol. 2 (1973) {2008, Reissue}

Bee Gees - Best Of Bee Gees Vol. 2 (1973) {2008, Reissue}
EAC Rip | FLAC (Img) + Cue + Log ~ 326 Mb | MP3 CBR320 ~ 158 Mb
Full Scans | RAR 5% Recovery
Pop, Soft Rock, Pop Rock | Reprise Records #R2 516198

This album, which originally appeared on LP in several slightly different versions and song lineups in different countries, came out at an unlikely moment. The group's first best-of album had coincided with the trio's split in mid-1969, a point when they had more than enough hits worldwide (a couple of which had never been on album) to justify and fill such an album. Best of Bee Gees, Vol. 2, by contrast, was released amid the collapse of the group's commercial fortunes that had begun in late 1972. Ideally, RSO Records could have waited another year or more before doing a second best-of album, but as the Bee Gees' Life in a Tin Can album and the accompanying single had barely charted, and their intended follow-up, "A Kick in the Head Is Worth Eight in the Pants," had been junked after an extended period in production, Best of Bee Gees, Vol. 2 was a necessity. And, in a way, the timing was fortuitous in that there weren't nearly enough post-1969 hits to fill up the album. Thus, in addition to the obvious international chart hits "How Can You Mend a Broken Heart," "Lonely Days," "Run to Me," and "My World," the producers had to reach out to lesser-charting songs. These included "Don't Want to Live Inside Myself" and 1968's Horizontal album for "And the Sun Will Shine," 1969's slightly offbeat country-style single "Don't Forget to Remember," Robin Gibb's solo release "Saved by the Bell," and the delightful Bee Gees reggae-flavored "I.O.I.O." Also included were some of the group's better album cuts, including "Man for All Seasons" from 2 Years On. Even amid those hits, the best song on this album, and the one that Bee Gees fans were least likely to own already, is easily "Morning of My Life," one of the first records that the group recorded after getting back together in 1971, from the Melody soundtrack album. The resulting collection is, in many ways, as charming and quirky, if not quite as imposing a body of music, as its predecessor.

~ Bruce Eder, All Music

***************

Bee Gees - Best Of Bee Gees Vol. 2 (1973) {2008, Reissue}

Bee Gees - Best Of Bee Gees Vol. 2 (1973) {2008, Reissue}

Track List:

01. How Can You Mend a Broken Heart [0:03:59.38]
02. I.O.I.O [0:02:51.47]
03. Don't Want to Live Inside Myself [0:05:27.00]
04. Melody Fair [0:03:51.15]
05. My World [0:04:23.13]
06. Let There Be Love [0:03:34.37]
07. Saved By the Bell [0:03:07.28]
08. Lonely Days [0:03:49.15]
09. Morning of My Life [0:03:57.00]
10. Don't Forget to Remember [0:03:31.52]
11. And the Sun Will Shine [0:03:34.30]
12. Run to Me [0:03:10.43]
13. Man for All Seasons [0:03:00.72]
14. Alive [0:03:58.31]

Personnel:
Barry Gibb - vocals, rhythm guitar
Robin Gibb - vocals, guitar, organ, drum machine
Maurice Gibb - bass, piano
Kenny Clayton - orchestral arrangement

Exact Audio Copy V0.99 prebeta 4 from 23. January 2008

EAC extraction logfile from 9. March 2016, 19:14

Bee Gees / Best of Bee Gees (Vol.2)

Used drive : PLEXTOR DVDR PX-750A Adapter: 0 ID: 2

Read mode : Secure
Utilize accurate stream : Yes
Defeat audio cache : Yes
Make use of C2 pointers : No

Read offset correction : 102
Overread into Lead-In and Lead-Out : No
Fill up missing offset samples with silence : Yes
Delete leading and trailing silent blocks : No
Null samples used in CRC calculations : No
Used interface : Installed external ASPI interface

Used output format : Internal WAV Routines
Sample format : 44.100 Hz; 16 Bit; Stereo


TOC of the extracted CD

Track | Start | Length | Start sector | End sector
––––––––––––––––––––––––––––-
1 | 0:00.32 | 3:59.38 | 32 | 17994
2 | 3:59.70 | 2:51.47 | 17995 | 30866
3 | 6:51.42 | 5:27.00 | 30867 | 55391
4 | 12:18.42 | 3:51.15 | 55392 | 72731
5 | 16:09.57 | 4:23.13 | 72732 | 92469
6 | 20:32.70 | 3:34.37 | 92470 | 108556
7 | 24:07.32 | 3:07.28 | 108557 | 122609
8 | 27:14.60 | 3:49.15 | 122610 | 139799
9 | 31:04.00 | 3:57.00 | 139800 | 157574
10 | 35:01.00 | 3:31.52 | 157575 | 173451
11 | 38:32.52 | 3:34.30 | 173452 | 189531
12 | 42:07.07 | 3:10.43 | 189532 | 203824
13 | 45:17.50 | 3:00.72 | 203825 | 217396
14 | 48:18.47 | 3:58.31 | 217397 | 235277


Range status and errors

Selected range

Filename M:\0\Bee Gees - 1973 - Best of Bee Gees (Vol.2).wav

Peak level 93.4 %
Range quality 99.9 %
Test CRC 17035092
Copy CRC 17035092
Copy OK

No errors occurred

End of status report

[CUETools log; Date: 25.05.2019 11:02:55; Version: 2.1.6]
Pregap length 00:00:32.
[CTDB TOCID: EX4jaA0E5Eq3Kba9qkUm65gbGTc-] found.
Track | CTDB Status
1 | (86/92) Accurately ripped
2 | (86/92) Accurately ripped
3 | (86/92) Accurately ripped
4 | (85/92) Accurately ripped
5 | (85/92) Accurately ripped
6 | (84/92) Accurately ripped
7 | (84/92) Accurately ripped
8 | (85/92) Accurately ripped
9 | (85/92) Accurately ripped
10 | (88/92) Accurately ripped
11 | (89/92) Accurately ripped
12 | (89/92) Accurately ripped
13 | (86/92) Accurately ripped
14 | (89/92) Accurately ripped
[AccurateRip ID: 001bbbca-0125b631-ae0c410e] found.
Track [ CRC | V2 ] Status
01 [e90d8b81|59515164] (04+17/92) Accurately ripped
02 [7bd6e928|5550baf9] (04+18/94) Accurately ripped
03 [5b7d217a|d0994501] (04+17/93) Accurately ripped
04 [44b64e76|82a2f4d0] (04+17/93) Accurately ripped
05 [b3cad7eb|eb1f0479] (04+17/92) Accurately ripped
06 [a11e352f|dac4f1d5] (04+17/92) Accurately ripped
07 [8e991b20|159e0068] (04+17/92) Accurately ripped
08 [a3b2a41f|e34dea5d] (04+17/92) Accurately ripped
09 [d28968c5|7e9bf78d] (04+17/93) Accurately ripped
10 [0b7e7b22|8820ef54] (04+17/93) Accurately ripped
11 [58dfafa0|bd0f196c] (04+17/94) Accurately ripped
12 [97c11edc|6009c4c6] (04+17/94) Accurately ripped
13 [cbedc9a2|6cc9e46e] (04+17/94) Accurately ripped
14 [7c6a79d6|bca5bef5] (04+17/94) Accurately ripped
Offsetted by 24:
01 [145f1b0c] (10/92) Accurately ripped
02 [0c3f2ad9] (10/94) Accurately ripped
03 [fa827f41] (10/93) Accurately ripped
04 [8a658da4] (10/93) Accurately ripped
05 [828ef71d] (10/92) Accurately ripped
06 [b4b3aca8] (10/92) Accurately ripped
07 [54e2354b] (10/92) Accurately ripped
08 [d585521f] (10/92) Accurately ripped
09 [fb960d3d] (10/93) Accurately ripped
10 [79b1a822] (10/93) Accurately ripped
11 [c37c6212] (10/94) Accurately ripped
12 [409489e4] (10/94) Accurately ripped
13 [68ce9130] (10/94) Accurately ripped
14 [3f5f0161] (09/94) Accurately ripped
Offsetted by 588:
01 [bdc5810a] (02/92) Accurately ripped
02 [4fbf5667] (02/94) Accurately ripped
03 [6c6f3c07] (02/93) Accurately ripped
04 [c3b33df0] (02/93) Accurately ripped
05 [d27b4189] (02/92) Accurately ripped
06 [7a15881c] (02/92) Accurately ripped
07 [8c8296eb] (02/92) Accurately ripped
08 [46becb1f] (02/92) Accurately ripped
09 [ccf52641] (02/93) Accurately ripped
10 [60190cae] (02/93) Accurately ripped
11 [7305b664] (02/94) Accurately ripped
12 [035ab6c5] (02/94) Accurately ripped
13 [c9717509] (02/94) Accurately ripped
14 [f489795d] (02/94) Accurately ripped
Offsetted by 779:
01 [48848bf8] (24/92) Accurately ripped
02 [d1e95ab3] (24/94) Accurately ripped
03 [33155292] (24/93) Accurately ripped
04 [6ed0248a] (24/93) Accurately ripped
05 [76e56661] (24/92) Accurately ripped
06 [ac58c438] (24/92) Accurately ripped
07 [f76e3601] (24/92) Accurately ripped
08 [9be393df] (24/92) Accurately ripped
09 [d125987c] (24/93) Accurately ripped
10 [e02c9ead] (24/93) Accurately ripped
11 [dcf9189d] (24/94) Accurately ripped
12 [cd4ca868] (24/94) Accurately ripped
13 [ad419c33] (24/94) Accurately ripped
14 [243ba17f] (24/94) Accurately ripped
Offsetted by -588:
01 [8f4165c5] (00/92) No match (V2 was not tested)
02 [f99e950b] (00/94) No match (V2 was not tested)
03 [556ef40b] (00/93) No match (V2 was not tested)
04 [96505594] (00/93) No match (V2 was not tested)
05 [2c0869e5] (00/92) No match (V2 was not tested)
06 [6b121959] (00/92) No match (V2 was not tested)
07 [d3db3eae] (00/92) No match (V2 was not tested)
08 [60397d1f] (00/92) No match (V2 was not tested)
09 [efdfab49] (00/93) No match (V2 was not tested)
10 [460a129c] (00/93) No match (V2 was not tested)
11 [ecf605ab] (00/94) No match (V2 was not tested)
12 [10e43145] (00/94) No match (V2 was not tested)
13 [eea49674] (00/94) No match (V2 was not tested)
14 [bdfc2f4b] (00/94) No match (V2 was not tested)
Offsetted by 6:
01 [16d31eab] (00/92) No match (V2 was not tested)
02 [1ced636f] (00/94) No match (V2 was not tested)
03 [4341b8e9] (00/93) No match (V2 was not tested)
04 [5baf4cd4] (00/93) No match (V2 was not tested)
05 [ff73a001] (00/92) No match (V2 was not tested)
06 [7caf68ed] (00/92) No match (V2 was not tested)
07 [45cca1fe] (00/92) No match (V2 was not tested)
08 [0dd18f9f] (00/92) No match (V2 was not tested)
09 [5cc891e3] (00/93) No match (V2 was not tested)
10 [0d9dcc3e] (00/93) No match (V2 was not tested)
11 [c4a2dcb4] (00/94) No match (V2 was not tested)
12 [a8ab5551] (00/94) No match (V2 was not tested)
13 [41f97b9b] (00/94) No match (V2 was not tested)
14 [3d696f01] (00/94) No match (V2 was not tested)

Track Peak [ CRC32 ] [W/O NULL] [ LOG ]
– 93,4 [2170E745] [81DDE1EF] [17035092]
01 85,7 [FBFCD51F] [38A130FA]
02 61,7 [89740366] [927B2D9E]
03 67,9 [A62B0171] [6040C5FC]
04 51,6 [07B775D3] [C1EA2AD5]
05 93,4 [94E0AE4B] [ABF869F8]
06 72,7 [8F323BEF] [1D71FC2E]
07 60,9 [D321B1CE] [42C126F1]
08 84,8 [50A50ADA] [A1EDCDEC]
09 59,1 [C3B1B5B8] [06B0EBA2]
10 60,0 [7D6B5B10] [4A86AE15]
11 69,1 [72AA0D4B] [C542B4F5]
12 66,4 [2CE1A14A] [A8C32B89]
13 77,0 [366A9362] [2263BECD]
14 69,0 [06ABAA77] [D73A5C7F]

Bee Gees - Best Of Bee Gees Vol. 2 (1973) {2008, Reissue}

See also:
Bee Gees - Best Of Bee Gees, Vol. 1 (1969) {1987, Reissue}

All thanks go to geometro

>>> "Bee Gees" in my Blog <<<

Download from icerbox.com: