Subcategories
Tags
Language
Tags

Sir Simon Rattle, Berliner Philharmoniker - Beethoven: Symphonies 1-9 (2016) [Blu-ray]

Posted By: Vilboa
Sir Simon Rattle, Berliner Philharmoniker - Beethoven: Symphonies 1-9 (2016) [Blu-ray]

Sir Simon Rattle, Berliner Philharmoniker - Beethoven: Symphonies 1-9 (2016) [Blu-ray]
2xBluRay | BDMV | MPEG-4 AVC Video / 1080i / 29,970 fps | 397 min | 44,9+42,6 Gb
Audio1: German / LPCM Audio / 2.0 / 48 kHz | Audio2: DTS-HD Master Audio / 5.0 / 48 kHz / 16-bit

Audio BluRay | Audio1: German / LPCM Audio / 2.0 / 96 kHz | Audio2: DTS-HD Master Audio / 5.1 / 96 kHz / 24-bit | 344 min | 31,0 Gb

BluRay-rip | AVC | MKV 1920x1080 / 6215 kbps / 29,970 fps | 344 min | 21,2 Gb
Audio: German / DTS / 5ch / 48.0 KHz / 16 bits
Classical | Berliner Philharmoniker Recordings | Sub: German, English, Japanese

Recordings of all the Beethoven symphonies with their chief conductor are always a milestone in the artistic work of the Berliner Philharmoniker. So it was with Herbert von Karajan and Claudio Abbado, and expectations are correspondingly high for this cycle conducted by Sir Simon Rattle. Where does the special status of these symphonies come from? Simon Rattle has an explanation: “One of the things Beethoven does is to give you a mirror into yourself – where you are now as a musician.” In fact, this music contains such a wealth of extreme emotions and brilliant compositional ideas that reveal the qualities of the orchestra and its conductor as if under a magnifying glass.

Cast:
Annette Dasch, soprano
Eva Vogel, mezzo-soprano
Christian Elsner, tenor
Dimitry Ivashchenko, bass
Rundfunkchor Berlin
Berliner Philharmoniker
Conductor - Sir Simon Rattle

Track:
Disc 1:
Symphony No. 1 in C major, Op. 21
Symphony No. 3 in E flat major, Op. 55 “Eroica”
Symphony No. 2 in D major, Op. 36
Symphony No. 5 in C minor, Op. 67
Symphony No. 4 in B flat major, Op. 60
Symphony No. 7 in A major, Op. 92
Disc 2:
Symphony No. 8 in F major, Op. 93
Symphony No. 6 in F major, Op. 68 “Pastoral”
Symphony No. 9 in D minor, Op. 125
Bonus:
Documentary: "Living with Beethoven" The nine symphonies with the Berliner Philharmoniker and Sir Simon Rattle
Introduction: Sir Simon Rattle talks about Beethoven's symphonies

Track List Audio Blu-ray:
Symphony No. 1 in C major, Op. 21
01. 1. Adagio molto – Allegro con brio
02. 2. Andante cantabile con moto
03. 3. Menuetto: Allegro molto e vivace – Trio
04. 4. Finale: Adagio – Allegro molto e vivace
Symphony No. 2 in D major, Op. 36
05. 1. Adagio – Allegro con brio
06. 2. Larghetto
07. 3. Scherzo: Allegro – Trio
08. 4. Allegro molto
Symphony No. 3 in E flat major, Op. 55 “Eroica”
09. 1. Allegro con brio
10. 2. Marcia funebre: Adagio assai
11. 3. Scherzo: Allegro vivace – Trio
12. 4. Finale: Allegro molto – Poco andante – Presto
Symphony No. 4 in B flat major, Op. 60
13. 1. Adagio – Allegro vivace
14. 2. Adagio
15. 3. Allegro molto e vivace – Trio: Un poco meno allegro – Tempo I – Un poco meno allegro
16. 4. Allegro ma non troppo
Symphony No. 5 in C minor, Op. 67
17. 1. Allegro con brio
18. 2. Andante con moto
19. 3. Allegro
20. 4. Allegro – Presto
Symphony No. 6 in F major, Op. 68 “Pastoral”
21. 1. Angenehme, heitere Empfindungen, welche bei der Ankunft auf dem Lande im Menschen erwachen: Allegro ma non troppo
22. 2. Szene am Bach: Andante molto mosso
23. 3. Lustiges Zusammensein der Landleute: Allegro
24. 4. Donner. Sturm: Allegro
25. 5. Hirtengesang. Wohltätige, mit Dank an die Gottheit verbundene Gefühle nach dem Sturm: Allegretto
Symphony No. 7 in A major, Op. 92
26. 1. Poco sostenuto – Vivace
27. 2. Allegretto
28. 3. Presto – Trio I und II: Assai meno presto
29. 4. Allegro con brio
Symphony No. 8 in F major, Op. 93
30. 1. Allegro vivace e con brio
31. 2. Allegretto scherzando
32. 3. Tempo di Menuetto – Trio
33. 4. Allegro vivace
Symphony No. 9 in D minor, Op. 125
34. 1. Allegro ma non troppo e un poco maestoso
35. 2. Molto vivace – Presto – Molto vivace – Presto
36. 3. Adagio molto e cantabile
37. 4a. Presto
38. 4b. Presto – Recitativo “O Freunde, nicht diese Töne!”


Disc Title: BEETHOVEN_BD2
Disc Size: 45 781 275 150 bytes
Protection: AACS
BD-Java: No
Playlist: 00002.MPLS
Size: 14 548 684 800 bytes
Length: 1:16:22.878
Total Bitrate: 25,40 Mbps
Video: MPEG-4 AVC Video / 19996 kbps / 1080i / 29,970 fps / 16:9 / High Profile 4.1
Audio: German / LPCM Audio / 2.0 / 48 kHz / 1536 kbps / 16-bit
Audio: German / DTS-HD Master Audio / 5.0 / 48 kHz / 2267 kbps / 16-bit (DTS Core: 5.0 / 48 kHz / 1509 kbps / 16-bit)
Subtitle: German / 3,157 kbps
Subtitle: English / 3,004 kbps
Subtitle: Japanese / 2,631 kbps


Disc Title: BEETHOVEN_AUDIO_BD
Disc Size: 33 394 542 819 bytes
Protection: AACS
BD-Java: Yes
Playlist: 00000.MPLS
Size: 33 376 358 400 bytes
Length: 5:45:13.959
Total Bitrate: 12,89 Mbps
Video: MPEG-4 AVC Video / 950 kbps / 1080i / 29,970 fps / 16:9 / High Profile 4.1
Audio: German / LPCM Audio / 2.0 / 96 kHz / 4608 kbps / 24-bit
Audio: German / DTS-HD Master Audio / 5.1 / 96 kHz / 6409 kbps / 24-bit (DTS Core: 5.1 / 48 kHz / 1509 kbps / 24-bit)


General
Unique ID : 177866932159995450871228465458255346899 (0x85CFECD1CD48DADA9593FF51683DBCD3)
Complete name : C:\Symphony_09.mkv
Format : Matroska
Format version : Version 2
File size : 4.13 GiB
Duration : 1h 16mn
Overall bit rate : 7 744 Kbps
Movie name : Sir_Simon_Rattle_-_Beethoven_BD2_t02
Encoded date : UTC 2017-11-04 07:46:37
Writing application : DVDFab 9.1.6.8
Writing library : libebml v0.7.8 + libmatroska v0.8.1

Video
ID : 1
Format : AVC
Format/Info : Advanced Video Codec
Format profile : High@L4.1
Format settings, CABAC : Yes
Format settings, ReFrames : 2 frames
Codec ID : V_MPEG4/ISO/AVC
Duration : 1h 16mn
Bit rate : 6 215 Kbps
Width : 1 920 pixels
Height : 1 080 pixels
Display aspect ratio : 16:9
Frame rate mode : Constant
Frame rate : 29.970 fps
Color space : YUV
Chroma subsampling : 4:2:0
Bit depth : 8 bits
Scan type : Progressive
Bits/(Pixel*Frame) : 0.100
Stream size : 3.24 GiB (79%)
Writing library : x264 core 142
Encoding settings : cabac=1 / ref=1 / deblock=1:-1:-1 / analyse=0x3:0 / me=hex / subme=5 / psy=0 / mixed_ref=0 / me_range=16 / chroma_me=1 / trellis=0 / 8x8dct=1 / cqm=0 / deadzone=21,11 / fast_pskip=1 / chroma_qp_offset=0 / threads=8 / lookahead_threads=2 / sliced_threads=0 / nr=0 / decimate=1 / interlaced=0 / bluray_compat=0 / constrained_intra=0 / bframes=2 / b_pyramid=0 / b_adapt=1 / b_bias=0 / direct=1 / weightb=1 / open_gop=0 / weightp=0 / keyint=24 / keyint_min=13 / scenecut=40 / intra_refresh=0 / rc=abr / mbtree=0 / bitrate=6215 / ratetol=1.0 / qcomp=0.60 / qpmin=0 / qpmax=69 / qpstep=4 / ip_ratio=1.40 / pb_ratio=1.30 / aq=1:1.00
Default : Yes
Forced : No
Color primaries : BT.709
Transfer characteristics : BT.709
Matrix coefficients : BT.709
Color range : Limited

Audio
ID : 2
Format : DTS
Format/Info : Digital Theater Systems
Mode : 16
Format settings, Endianness : Big
Codec ID : A_DTS
Duration : 1h 16mn
Bit rate mode : Constant
Bit rate : 1 509 Kbps
Channel(s) : 5 channels
Channel positions : Front: L C R, Side: L R
Sampling rate : 48.0 KHz
Bit depth : 16 bits
Compression mode : Lossy
Stream size : 824 MiB (19%)
Language : German
Default : Yes
Forced : No

Text #1
ID : 3
Format : VobSub
Codec ID : S_VOBSUB
Codec ID/Info : The same subtitle format used on DVDs
Language : German
Default : Yes
Forced : No

Text #2
ID : 4
Format : VobSub
Codec ID : S_VOBSUB
Codec ID/Info : The same subtitle format used on DVDs
Language : English
Default : No
Forced : No

Text #3
ID : 5
Format : VobSub
Codec ID : S_VOBSUB
Codec ID/Info : The same subtitle format used on DVDs
Language : Japanese
Default : No
Forced : No

Menu
00:00:00.000 : en:Chapter 01
00:00:35.902 : en:Chapter 02
00:16:20.245 : en:Chapter 03
00:30:48.680 : en:Chapter 04
00:46:51.275 : en:Chapter 05
00:53:12.389 : en:Chapter 06
01:10:17.546 : en:Chapter 07

All screenshots taken from BDRip

Sir Simon Rattle, Berliner Philharmoniker - Beethoven: Symphonies 1-9 (2016) [Blu-ray]